<?xml version="1.0" standalone="no"?>
<!DOCTYPE svg PUBLIC "-//W3C//DTD SVG 1.1//EN" "http://www.w3.org/Graphics/SVG/1.1/DTD/svg11.dtd" >
<svg>
<metadata>
Created by FontForge 20090914 at Tue Jun  2 12:20:56 2020
 By www-data
&#194;&#169; 2015-2017 Apple Inc. All rights reserved.
</metadata>
<defs>
<font id="SFProText-Regular" horiz-adv-x="1800" >
  <font-face 
    font-family="SF Pro Text"
    font-weight="400"
    font-stretch="normal"
    units-per-em="2048"
    panose-1="0 0 5 0 0 0 0 0 0 0"
    ascent="1638"
    descent="-410"
    x-height="1078"
    cap-height="1443"
    bbox="-626 -573.001 2698 2205"
    underline-thickness="120"
    underline-position="-370"
    unicode-range="U+0020-U+1F189"
  />
<missing-glyph horiz-adv-x="2048" 
d="M100 -494v284h1848v-284h-1848zM100 -62v284h1848v-284h-1848zM100 370v284h1848v-284h-1848zM100 802v284h1848v-284h-1848zM100 1234v284h1848v-284h-1848zM100 1666v284h1848v-284h-1848z" />
    <glyph glyph-name="uni2460" unicode="&#x31;&#x20dd;" 
d="M999 388h-130v571h-6l-166 -114v117l172 119h130v-693zM900 78c117.333 0 224.666 28.667 321.999 86s173.833 135.166 229.5 233.499s83.5 205.833 83.5 322.5s-27.833 224.167 -83.5 322.5s-132.167 176.166 -229.5 233.499s-204.666 86 -321.999 86
s-224.666 -28.667 -321.999 -86s-173.833 -135.166 -229.5 -233.499s-83.5 -205.833 -83.5 -322.5s27.833 -224.167 83.5 -322.5s132.167 -176.166 229.5 -233.499s204.666 -86 321.999 -86zM900 -50c-104 0 -203.667 20.5 -299 61.5s-177.333 95.833 -246 164.5
s-123.5 150.667 -164.5 246s-61.5 195 -61.5 299s20.5 203.667 61.5 299s95.833 177.333 164.5 246s150.667 123.5 246 164.5s195 61.5 299 61.5s203.667 -20.5 299 -61.5s177.333 -95.833 246 -164.5s123.5 -150.667 164.5 -246s61.5 -195 61.5 -299
s-20.5 -203.667 -61.5 -299s-95.833 -177.333 -164.5 -246s-150.667 -123.5 -246 -164.5s-195 -61.5 -299 -61.5z" />
    <glyph glyph-name="uni2461" unicode="&#x32;&#x20dd;" 
d="M782 878l-123.999 -0.000976562v6c0 57.333 21.167 106.666 63.5 147.999s102.166 62 179.499 62c72 0 130.167 -18.167 174.5 -54.5s66.5 -82.5 66.5 -138.5c0 -22 -3 -42.5 -9 -61.5s-16.5 -38.667 -31.5 -59s-27.167 -35.833 -36.5 -46.5s-25.666 -28 -48.999 -52
l-174 -185v-6h313v-103h-492v77l268 280c17.333 17.333 30.833 31.833 40.5 43.5s19 26.834 28 45.501s13.5 37.334 13.5 56.001c0 30 -10.833 54.667 -32.5 74s-48.834 29 -81.501 29c-36 0 -64.5 -10.5 -85.5 -31.5s-31.5 -46.833 -31.5 -77.5v-6zM900.001 77.999
c117.333 0 224.666 28.667 321.999 86s173.833 135.166 229.5 233.499s83.5 205.833 83.5 322.5s-27.833 224.167 -83.5 322.5s-132.167 176.166 -229.5 233.499s-204.666 86 -321.999 86s-224.666 -28.667 -321.999 -86s-173.833 -135.166 -229.5 -233.499
s-83.5 -205.833 -83.5 -322.5s27.833 -224.167 83.5 -322.5s132.167 -176.166 229.5 -233.499s204.666 -86 321.999 -86zM900.001 -50.001c-104 0 -203.667 20.5 -299 61.5s-177.333 95.833 -246 164.5s-123.5 150.667 -164.5 246s-61.5 195 -61.5 299
s20.5 203.667 61.5 299s95.833 177.333 164.5 246s150.667 123.5 246 164.5s195 61.5 299 61.5s203.667 -20.5 299 -61.5s177.333 -95.833 246 -164.5s123.5 -150.667 164.5 -246s61.5 -195 61.5 -299s-20.5 -203.667 -61.5 -299s-95.833 -177.333 -164.5 -246
s-150.667 -123.5 -246 -164.5s-195 -61.5 -299 -61.5z" />
    <glyph glyph-name="uni2462" unicode="&#x33;&#x20dd;" 
d="M820 696l0.00390625 98.002h77c34 0 62.167 9.83301 84.5 29.5s33.5 44.167 33.5 73.5c-0.666992 28.667 -12 52.334 -34 71.001s-50 28 -84 28s-62 -8.83301 -84 -26.5s-33.667 -38.5 -35 -62.5h-122c1.33301 53.333 23.666 97.666 66.999 132.999
s102.333 53.333 177 54c72.667 0 131.167 -16.667 175.5 -50s67.166 -76.333 68.499 -129c0.666992 -44.667 -13.5 -81.334 -42.5 -110.001s-59.833 -45.667 -92.5 -51v-6c39.333 -4 75.166 -20.167 107.499 -48.5s48.833 -67.833 49.5 -118.5
c0.666992 -62 -24.833 -111.833 -76.5 -149.5s-116.167 -56.5 -193.5 -56.5c-76.667 0 -137.834 17.833 -183.501 53.5s-69.5 80.5 -71.5 134.5h120c2.66699 -26 16.5 -47.333 41.5 -64s56.5 -25.334 94.5 -26.001c41.333 0 75 10.667 101 32s39 48.333 39 81
c-1.33301 32.667 -14.333 59.167 -39 79.5s-57 30.5 -97 30.5h-81zM900.004 78.002c117.333 0 224.666 28.667 321.999 86s173.833 135.166 229.5 233.499s83.5 205.833 83.5 322.5s-27.833 224.167 -83.5 322.5s-132.167 176.166 -229.5 233.499s-204.666 86 -321.999 86
s-224.666 -28.667 -321.999 -86s-173.833 -135.166 -229.5 -233.499s-83.5 -205.833 -83.5 -322.5s27.833 -224.167 83.5 -322.5s132.167 -176.166 229.5 -233.499s204.666 -86 321.999 -86zM900.004 -49.998c-104 0 -203.667 20.5 -299 61.5s-177.333 95.833 -246 164.5
s-123.5 150.667 -164.5 246s-61.5 195 -61.5 299s20.5 203.667 61.5 299s95.833 177.333 164.5 246s150.667 123.5 246 164.5s195 61.5 299 61.5s203.667 -20.5 299 -61.5s177.333 -95.833 246 -164.5s123.5 -150.667 164.5 -246s61.5 -195 61.5 -299
s-20.5 -203.667 -61.5 -299s-95.833 -177.333 -164.5 -246s-150.667 -123.5 -246 -164.5s-195 -61.5 -299 -61.5z" />
    <glyph glyph-name="uni2463" unicode="&#x34;&#x20dd;" 
d="M875 1081h189v-458h91v-102h-91v-133h-123v133h-352v103c20 36 43.167 75.167 69.5 117.5l68 108.5l77 119.5zM710 623h231v361h-6c-90 -132 -165 -251 -225 -357v-4zM900 78c117.333 0 224.666 28.667 321.999 86s173.833 135.166 229.5 233.499
s83.5 205.833 83.5 322.5s-27.833 224.167 -83.5 322.5s-132.167 176.166 -229.5 233.499s-204.666 86 -321.999 86s-224.666 -28.667 -321.999 -86s-173.833 -135.166 -229.5 -233.499s-83.5 -205.833 -83.5 -322.5s27.833 -224.167 83.5 -322.5
s132.167 -176.166 229.5 -233.499s204.666 -86 321.999 -86zM900 -50c-104 0 -203.667 20.5 -299 61.5s-177.333 95.833 -246 164.5s-123.5 150.667 -164.5 246s-61.5 195 -61.5 299s20.5 203.667 61.5 299s95.833 177.333 164.5 246s150.667 123.5 246 164.5
s195 61.5 299 61.5s203.667 -20.5 299 -61.5s177.333 -95.833 246 -164.5s123.5 -150.667 164.5 -246s61.5 -195 61.5 -299s-20.5 -203.667 -61.5 -299s-95.833 -177.333 -164.5 -246s-150.667 -123.5 -246 -164.5s-195 -61.5 -299 -61.5z" />
    <glyph glyph-name="uni2464" unicode="&#x35;&#x20dd;" 
d="M652 562l121.001 -0.000976562c6 -28.667 21.5 -50.334 46.5 -65.001s54.5 -22 88.5 -22c37.333 0 69.666 12.833 96.999 38.5s41 59.834 41 102.501c0 38.667 -13.5 70.167 -40.5 94.5s-59.833 36.5 -98.5 36.5c-30.667 0 -57 -6.83301 -79 -20.5
s-37.667 -29.5 -47 -47.5h-114l32 402h434v-102h-329l-17 -195h6c10 14 27.833 27.5 53.5 40.5s56.834 19.5 93.501 19.5c66 0 121.333 -20.167 166 -60.5s67 -95.166 67 -164.499c0 -72.667 -24.833 -131.5 -74.5 -176.5s-114.834 -67.5 -195.501 -67.5
c-72 0 -131 17.667 -177 53s-70.667 80 -74 134zM900.001 77.999c117.333 0 224.666 28.667 321.999 86s173.833 135.166 229.5 233.499s83.5 205.833 83.5 322.5s-27.833 224.167 -83.5 322.5s-132.167 176.166 -229.5 233.499s-204.666 86 -321.999 86
s-224.666 -28.667 -321.999 -86s-173.833 -135.166 -229.5 -233.499s-83.5 -205.833 -83.5 -322.5s27.833 -224.167 83.5 -322.5s132.167 -176.166 229.5 -233.499s204.666 -86 321.999 -86zM900.001 -50.001c-104 0 -203.667 20.5 -299 61.5s-177.333 95.833 -246 164.5
s-123.5 150.667 -164.5 246s-61.5 195 -61.5 299s20.5 203.667 61.5 299s95.833 177.333 164.5 246s150.667 123.5 246 164.5s195 61.5 299 61.5s203.667 -20.5 299 -61.5s177.333 -95.833 246 -164.5s123.5 -150.667 164.5 -246s61.5 -195 61.5 -299
s-20.5 -203.667 -61.5 -299s-95.833 -177.333 -164.5 -246s-150.667 -123.5 -246 -164.5s-195 -61.5 -299 -61.5z" />
    <glyph glyph-name="uni2465" unicode="&#x36;&#x20dd;" 
d="M1158 616c0 -71.333 -23.8301 -129.331 -71.4971 -173.998s-109.834 -67 -186.501 -67c-77.333 0 -140 22.833 -188 68.5s-72 105.5 -72 179.5c0 79.333 32.667 164.666 98 255.999c4.66699 8 28.667 41.667 72 101s68.666 92.666 75.999 99.999h149
c-6.66699 -7.33301 -37.834 -47 -93.501 -119s-88.167 -114.667 -97.5 -128c-9.33301 -12.667 -17.333 -25 -24 -37l8 -2c28 29.333 67.667 44 119 44c60.667 0 111 -21 151 -63s60 -95 60 -159zM765.003 612.002c0 -38 12.667 -69.833 38 -95.5s57.333 -38.5 96 -38.5
s70.667 12.833 96 38.5s38 57.5 38 95.5s-12.667 69.833 -38 95.5s-57.333 38.5 -96 38.5s-70.667 -12.833 -96 -38.5s-38 -57.5 -38 -95.5zM900.003 78.002c117.333 0 224.666 28.667 321.999 86s173.833 135.166 229.5 233.499s83.5 205.833 83.5 322.5
s-27.833 224.167 -83.5 322.5s-132.167 176.166 -229.5 233.499s-204.666 86 -321.999 86s-224.666 -28.667 -321.999 -86s-173.833 -135.166 -229.5 -233.499s-83.5 -205.833 -83.5 -322.5s27.833 -224.167 83.5 -322.5s132.167 -176.166 229.5 -233.499
s204.666 -86 321.999 -86zM900.003 -49.998c-104 0 -203.667 20.5 -299 61.5s-177.333 95.833 -246 164.5s-123.5 150.667 -164.5 246s-61.5 195 -61.5 299s20.5 203.667 61.5 299s95.833 177.333 164.5 246s150.667 123.5 246 164.5s195 61.5 299 61.5
s203.667 -20.5 299 -61.5s177.333 -95.833 246 -164.5s123.5 -150.667 164.5 -246s61.5 -195 61.5 -299s-20.5 -203.667 -61.5 -299s-95.833 -177.333 -164.5 -246s-150.667 -123.5 -246 -164.5s-195 -61.5 -299 -61.5z" />
    <glyph glyph-name="uni2466" unicode="&#x37;&#x20dd;" 
d="M672 1071h491v-105l-296 -588h-137l301 584v6h-359v103zM900 78c117.333 0 224.666 28.667 321.999 86s173.833 135.166 229.5 233.499s83.5 205.833 83.5 322.5s-27.833 224.167 -83.5 322.5s-132.167 176.166 -229.5 233.499s-204.666 86 -321.999 86
s-224.666 -28.667 -321.999 -86s-173.833 -135.166 -229.5 -233.499s-83.5 -205.833 -83.5 -322.5s27.833 -224.167 83.5 -322.5s132.167 -176.166 229.5 -233.499s204.666 -86 321.999 -86zM900 -50c-104 0 -203.667 20.5 -299 61.5s-177.333 95.833 -246 164.5
s-123.5 150.667 -164.5 246s-61.5 195 -61.5 299s20.5 203.667 61.5 299s95.833 177.333 164.5 246s150.667 123.5 246 164.5s195 61.5 299 61.5s203.667 -20.5 299 -61.5s177.333 -95.833 246 -164.5s123.5 -150.667 164.5 -246s61.5 -195 61.5 -299
s-20.5 -203.667 -61.5 -299s-95.833 -177.333 -164.5 -246s-150.667 -123.5 -246 -164.5s-195 -61.5 -299 -61.5z" />
    <glyph glyph-name="uni2467" unicode="&#x38;&#x20dd;" 
d="M900 467c42 0 76.667 11.167 104 33.5s41 50.833 41 85.5s-13.5 63.167 -40.5 85.5s-61.833 33.5 -104.5 33.5c-42 0 -76.833 -11.333 -104.5 -34s-41.5 -51 -41.5 -85c0 -34.667 13.667 -63.167 41 -85.5s62.333 -33.5 105 -33.5zM900 793
c35.333 0 64.333 9.83301 87 29.5s34 44.834 34 75.501s-11.333 55.5 -34 74.5s-51.667 28.5 -87 28.5s-64.333 -9.5 -87 -28.5s-34 -43.833 -34 -74.5s11.333 -55.834 34 -75.501s51.667 -29.5 87 -29.5zM898 375c-81.333 0 -147.167 18.666 -197.5 55.999
s-75.5 86.333 -75.5 147c0 42.667 13.833 79.834 41.5 111.501s64.167 52.167 109.5 61.5v5c-38 12 -67.833 31.667 -89.5 59s-32.5 59.333 -32.5 96c0 53.333 23 97.166 69 131.499s105 51.5 177 51.5s131 -17.167 177 -51.5s69 -78.166 69 -131.499
c0 -36.667 -11 -69 -33 -97s-51.667 -47.333 -89 -58v-5c45.333 -9.33301 81.833 -29.666 109.5 -60.999s41.5 -68.333 41.5 -111c0 -60.667 -25.667 -109.834 -77 -147.501s-118 -56.5 -200 -56.5zM899.999 77.999c117.333 0 224.666 28.667 321.999 86
s173.833 135.166 229.5 233.499s83.5 205.833 83.5 322.5s-27.833 224.167 -83.5 322.5s-132.167 176.166 -229.5 233.499s-204.666 86 -321.999 86s-224.666 -28.667 -321.999 -86s-173.833 -135.166 -229.5 -233.499s-83.5 -205.833 -83.5 -322.5
s27.833 -224.167 83.5 -322.5s132.167 -176.166 229.5 -233.499s204.666 -86 321.999 -86zM899.999 -50.001c-104 0 -203.667 20.5 -299 61.5s-177.333 95.833 -246 164.5s-123.5 150.667 -164.5 246s-61.5 195 -61.5 299s20.5 203.667 61.5 299s95.833 177.333 164.5 246
s150.667 123.5 246 164.5s195 61.5 299 61.5s203.667 -20.5 299 -61.5s177.333 -95.833 246 -164.5s123.5 -150.667 164.5 -246s61.5 -195 61.5 -299s-20.5 -203.667 -61.5 -299s-95.833 -177.333 -164.5 -246s-150.667 -123.5 -246 -164.5s-195 -61.5 -299 -61.5z" />
    <glyph glyph-name="uni2468" unicode="&#x39;&#x20dd;" 
d="M641 853c0 71.333 23.8301 129.331 71.4971 173.998s109.834 67 186.501 67c77.333 0 140 -22.833 188 -68.5s72 -105.5 72 -179.5c0 -79.333 -32.667 -164.666 -98 -255.999c-4.66699 -8 -28.667 -41.667 -72 -101s-68.666 -92.666 -75.999 -99.999h-149
c6.66699 7.33301 37.834 47 93.501 119s88.167 114.667 97.5 128c9.33301 12.667 17.333 25 24 37l-8 2c-28 -29.333 -67.667 -44 -119 -44c-60.667 0 -111 21 -151 63s-60 95 -60 159zM1034 856.998c0 38 -12.667 69.833 -38 95.5s-57.333 38.5 -96 38.5
s-70.667 -12.833 -96 -38.5s-38 -57.5 -38 -95.5s12.667 -69.833 38 -95.5s57.333 -38.5 96 -38.5s70.667 12.833 96 38.5s38 57.5 38 95.5zM899.997 77.998c117.333 0 224.666 28.667 321.999 86s173.833 135.166 229.5 233.499s83.5 205.833 83.5 322.5
s-27.833 224.167 -83.5 322.5s-132.167 176.166 -229.5 233.499s-204.666 86 -321.999 86s-224.666 -28.667 -321.999 -86s-173.833 -135.166 -229.5 -233.499s-83.5 -205.833 -83.5 -322.5s27.833 -224.167 83.5 -322.5s132.167 -176.166 229.5 -233.499
s204.666 -86 321.999 -86zM899.997 -50.002c-104 0 -203.667 20.5 -299 61.5s-177.333 95.833 -246 164.5s-123.5 150.667 -164.5 246s-61.5 195 -61.5 299s20.5 203.667 61.5 299s95.833 177.333 164.5 246s150.667 123.5 246 164.5s195 61.5 299 61.5
s203.667 -20.5 299 -61.5s177.333 -95.833 246 -164.5s123.5 -150.667 164.5 -246s61.5 -195 61.5 -299s-20.5 -203.667 -61.5 -299s-95.833 -177.333 -164.5 -246s-150.667 -123.5 -246 -164.5s-195 -61.5 -299 -61.5z" />
    <glyph glyph-name="uni24B6" unicode="A&#x20dd;" 
d="M800 688h200l-95 287h-10zM710 408h-132l248 693h148l248 -693h-132l-62 186h-256zM900 78c117.333 0 224.666 28.667 321.999 86s173.833 135.166 229.5 233.499s83.5 205.833 83.5 322.5s-27.833 224.167 -83.5 322.5s-132.167 176.166 -229.5 233.499
s-204.666 86 -321.999 86s-224.666 -28.667 -321.999 -86s-173.833 -135.166 -229.5 -233.499s-83.5 -205.833 -83.5 -322.5s27.833 -224.167 83.5 -322.5s132.167 -176.166 229.5 -233.499s204.666 -86 321.999 -86zM900 -50c-104 0 -203.667 20.5 -299 61.5
s-177.333 95.833 -246 164.5s-123.5 150.667 -164.5 246s-61.5 195 -61.5 299s20.5 203.667 61.5 299s95.833 177.333 164.5 246s150.667 123.5 246 164.5s195 61.5 299 61.5s203.667 -20.5 299 -61.5s177.333 -95.833 246 -164.5s123.5 -150.667 164.5 -246
s61.5 -195 61.5 -299s-20.5 -203.667 -61.5 -299s-95.833 -177.333 -164.5 -246s-150.667 -123.5 -246 -164.5s-195 -61.5 -299 -61.5z" />
    <glyph glyph-name="uni24B7" unicode="B&#x20dd;" 
d="M663 388v693h294c64.667 0 116 -15.333 154 -46s57 -72.334 57 -125.001c0 -40 -11 -73 -33 -99s-51.667 -43.667 -89 -53v-5c47.333 -5.33301 86 -22.666 116 -51.999s45 -68.666 45 -117.999c0 -60.667 -23.167 -108.334 -69.5 -143.001s-107.5 -52 -183.5 -52h-291z
M792 984l0.000976562 -194h98c100 0 150 33 150 99c0 29.333 -9.83301 52.5 -29.5 69.5s-46.834 25.5 -81.501 25.5h-137zM792.001 700v-215.001h111c60 0 103.5 8.5 130.5 25.5s40.5 43.167 40.5 78.5c0 34.667 -11.833 61.834 -35.5 81.501s-57.167 29.5 -100.5 29.5h-146
zM900.001 77.999c117.333 0 224.666 28.667 321.999 86s173.833 135.166 229.5 233.499s83.5 205.833 83.5 322.5s-27.833 224.167 -83.5 322.5s-132.167 176.166 -229.5 233.499s-204.666 86 -321.999 86s-224.666 -28.667 -321.999 -86s-173.833 -135.166 -229.5 -233.499
s-83.5 -205.833 -83.5 -322.5s27.833 -224.167 83.5 -322.5s132.167 -176.166 229.5 -233.499s204.666 -86 321.999 -86zM900.001 -50.001c-104 0 -203.667 20.5 -299 61.5s-177.333 95.833 -246 164.5s-123.5 150.667 -164.5 246s-61.5 195 -61.5 299
s20.5 203.667 61.5 299s95.833 177.333 164.5 246s150.667 123.5 246 164.5s195 61.5 299 61.5s203.667 -20.5 299 -61.5s177.333 -95.833 246 -164.5s123.5 -150.667 164.5 -246s61.5 -195 61.5 -299s-20.5 -203.667 -61.5 -299s-95.833 -177.333 -164.5 -246
s-150.667 -123.5 -246 -164.5s-195 -61.5 -299 -61.5z" />
    <glyph glyph-name="uni24B8" unicode="C&#x20dd;" 
d="M1068 606l132 0.00292969c-10.667 -70 -43.334 -126 -98.001 -168s-122.667 -63 -204 -63c-96.667 0 -174.834 33 -234.501 99s-89.5 152.667 -89.5 260s29.833 194.166 89.5 260.499s137.834 99.5 234.501 99.5c83.333 0 152.5 -21.833 207.5 -65.5
s87.167 -101.834 96.5 -174.501h-130c-5.33301 39.333 -24.166 71.666 -56.499 96.999s-70.833 38 -115.5 38c-58.667 0 -105.667 -23.333 -141 -70s-53 -108.334 -53 -185.001s17.667 -138.167 53 -184.5s82.333 -69.5 141 -69.5c43.333 0 80.833 11.833 112.5 35.5
s50.167 53.834 55.5 90.501zM900 78.0029c117.333 0 224.666 28.667 321.999 86s173.833 135.166 229.5 233.499s83.5 205.833 83.5 322.5s-27.833 224.167 -83.5 322.5s-132.167 176.166 -229.5 233.499s-204.666 86 -321.999 86s-224.666 -28.667 -321.999 -86
s-173.833 -135.166 -229.5 -233.499s-83.5 -205.833 -83.5 -322.5s27.833 -224.167 83.5 -322.5s132.167 -176.166 229.5 -233.499s204.666 -86 321.999 -86zM900 -49.9971c-104 0 -203.667 20.5 -299 61.5s-177.333 95.833 -246 164.5s-123.5 150.667 -164.5 246
s-61.5 195 -61.5 299s20.5 203.667 61.5 299s95.833 177.333 164.5 246s150.667 123.5 246 164.5s195 61.5 299 61.5s203.667 -20.5 299 -61.5s177.333 -95.833 246 -164.5s123.5 -150.667 164.5 -246s61.5 -195 61.5 -299s-20.5 -203.667 -61.5 -299
s-95.833 -177.333 -164.5 -246s-150.667 -123.5 -246 -164.5s-195 -61.5 -299 -61.5z" />
    <glyph glyph-name="uni24B9" unicode="D&#x20dd;" 
d="M656 1081h256c107.333 0 188 -29.5 242 -88.5s81 -144.5 81 -256.5s-27 -198 -81 -258s-134.667 -90 -242 -90h-256v693zM786 978v-487h110c136.667 0 205 81 205 243c0 162.667 -68.333 244 -205 244h-110zM900 78c117.333 0 224.666 28.667 321.999 86
s173.833 135.166 229.5 233.499s83.5 205.833 83.5 322.5s-27.833 224.167 -83.5 322.5s-132.167 176.166 -229.5 233.499s-204.666 86 -321.999 86s-224.666 -28.667 -321.999 -86s-173.833 -135.166 -229.5 -233.499s-83.5 -205.833 -83.5 -322.5
s27.833 -224.167 83.5 -322.5s132.167 -176.166 229.5 -233.499s204.666 -86 321.999 -86zM900 -50c-104 0 -203.667 20.5 -299 61.5s-177.333 95.833 -246 164.5s-123.5 150.667 -164.5 246s-61.5 195 -61.5 299s20.5 203.667 61.5 299s95.833 177.333 164.5 246
s150.667 123.5 246 164.5s195 61.5 299 61.5s203.667 -20.5 299 -61.5s177.333 -95.833 246 -164.5s123.5 -150.667 164.5 -246s61.5 -195 61.5 -299s-20.5 -203.667 -61.5 -299s-95.833 -177.333 -164.5 -246s-150.667 -123.5 -246 -164.5s-195 -61.5 -299 -61.5z" />
    <glyph glyph-name="uni24BA" unicode="E&#x20dd;" 
d="M1135 491v-103h-459v693h459v-103h-330v-190h311v-98h-311v-199h330zM900 78c117.333 0 224.666 28.667 321.999 86s173.833 135.166 229.5 233.499s83.5 205.833 83.5 322.5s-27.833 224.167 -83.5 322.5s-132.167 176.166 -229.5 233.499s-204.666 86 -321.999 86
s-224.666 -28.667 -321.999 -86s-173.833 -135.166 -229.5 -233.499s-83.5 -205.833 -83.5 -322.5s27.833 -224.167 83.5 -322.5s132.167 -176.166 229.5 -233.499s204.666 -86 321.999 -86zM900 -50c-104 0 -203.667 20.5 -299 61.5s-177.333 95.833 -246 164.5
s-123.5 150.667 -164.5 246s-61.5 195 -61.5 299s20.5 203.667 61.5 299s95.833 177.333 164.5 246s150.667 123.5 246 164.5s195 61.5 299 61.5s203.667 -20.5 299 -61.5s177.333 -95.833 246 -164.5s123.5 -150.667 164.5 -246s61.5 -195 61.5 -299
s-20.5 -203.667 -61.5 -299s-95.833 -177.333 -164.5 -246s-150.667 -123.5 -246 -164.5s-195 -61.5 -299 -61.5z" />
    <glyph glyph-name="uni24BB" unicode="F&#x20dd;" 
d="M838 388h-131v693h454v-104h-323v-205h295v-102h-295v-282zM900 78c117.333 0 224.666 28.667 321.999 86s173.833 135.166 229.5 233.499s83.5 205.833 83.5 322.5s-27.833 224.167 -83.5 322.5s-132.167 176.166 -229.5 233.499s-204.666 86 -321.999 86
s-224.666 -28.667 -321.999 -86s-173.833 -135.166 -229.5 -233.499s-83.5 -205.833 -83.5 -322.5s27.833 -224.167 83.5 -322.5s132.167 -176.166 229.5 -233.499s204.666 -86 321.999 -86zM900 -50c-104 0 -203.667 20.5 -299 61.5s-177.333 95.833 -246 164.5
s-123.5 150.667 -164.5 246s-61.5 195 -61.5 299s20.5 203.667 61.5 299s95.833 177.333 164.5 246s150.667 123.5 246 164.5s195 61.5 299 61.5s203.667 -20.5 299 -61.5s177.333 -95.833 246 -164.5s123.5 -150.667 164.5 -246s61.5 -195 61.5 -299
s-20.5 -203.667 -61.5 -299s-95.833 -177.333 -164.5 -246s-150.667 -123.5 -246 -164.5s-195 -61.5 -299 -61.5z" />
    <glyph glyph-name="uni24BC" unicode="G&#x20dd;" 
d="M1071 604v57h-160v95h284v-122c0 -78 -25.5 -140.667 -76.5 -188s-123.833 -71 -218.5 -71c-97.333 0 -176 33.167 -236 99.5s-90 152.833 -90 259.5c0 107.333 30.167 194.166 90.5 260.499s138.833 99.5 235.5 99.5c81.333 0 149.333 -21 204 -63
s86.667 -97.667 96 -167h-130c-5.33301 36 -24 65.833 -56 89.5s-69.333 35.5 -112 35.5c-59.333 0 -106.833 -23.167 -142.5 -69.5s-53.5 -108.166 -53.5 -185.499s17.833 -139 53.5 -185s83.167 -69 142.5 -69c54 0 95.667 11.333 125 34s44 52.667 44 90zM900 78
c117.333 0 224.666 28.667 321.999 86s173.833 135.166 229.5 233.499s83.5 205.833 83.5 322.5s-27.833 224.167 -83.5 322.5s-132.167 176.166 -229.5 233.499s-204.666 86 -321.999 86s-224.666 -28.667 -321.999 -86s-173.833 -135.166 -229.5 -233.499
s-83.5 -205.833 -83.5 -322.5s27.833 -224.167 83.5 -322.5s132.167 -176.166 229.5 -233.499s204.666 -86 321.999 -86zM900 -50c-104 0 -203.667 20.5 -299 61.5s-177.333 95.833 -246 164.5s-123.5 150.667 -164.5 246s-61.5 195 -61.5 299s20.5 203.667 61.5 299
s95.833 177.333 164.5 246s150.667 123.5 246 164.5s195 61.5 299 61.5s203.667 -20.5 299 -61.5s177.333 -95.833 246 -164.5s123.5 -150.667 164.5 -246s61.5 -195 61.5 -299s-20.5 -203.667 -61.5 -299s-95.833 -177.333 -164.5 -246s-150.667 -123.5 -246 -164.5
s-195 -61.5 -299 -61.5z" />
    <glyph glyph-name="uni24BD" unicode="H&#x20dd;" 
d="M1191 388h-130v304h-321v-304h-130v693h130v-286h321v286h130v-693zM900 78c117.333 0 224.666 28.667 321.999 86s173.833 135.166 229.5 233.499s83.5 205.833 83.5 322.5s-27.833 224.167 -83.5 322.5s-132.167 176.166 -229.5 233.499s-204.666 86 -321.999 86
s-224.666 -28.667 -321.999 -86s-173.833 -135.166 -229.5 -233.499s-83.5 -205.833 -83.5 -322.5s27.833 -224.167 83.5 -322.5s132.167 -176.166 229.5 -233.499s204.666 -86 321.999 -86zM900 -50c-104 0 -203.667 20.5 -299 61.5s-177.333 95.833 -246 164.5
s-123.5 150.667 -164.5 246s-61.5 195 -61.5 299s20.5 203.667 61.5 299s95.833 177.333 164.5 246s150.667 123.5 246 164.5s195 61.5 299 61.5s203.667 -20.5 299 -61.5s177.333 -95.833 246 -164.5s123.5 -150.667 164.5 -246s61.5 -195 61.5 -299
s-20.5 -203.667 -61.5 -299s-95.833 -177.333 -164.5 -246s-150.667 -123.5 -246 -164.5s-195 -61.5 -299 -61.5z" />
    <glyph glyph-name="uni24BE" unicode="I&#x20dd;" 
d="M966 388h-132v693h132v-693zM900 78c117.333 0 224.666 28.667 321.999 86s173.833 135.166 229.5 233.499s83.5 205.833 83.5 322.5s-27.833 224.167 -83.5 322.5s-132.167 176.166 -229.5 233.499s-204.666 86 -321.999 86s-224.666 -28.667 -321.999 -86
s-173.833 -135.166 -229.5 -233.499s-83.5 -205.833 -83.5 -322.5s27.833 -224.167 83.5 -322.5s132.167 -176.166 229.5 -233.499s204.666 -86 321.999 -86zM900 -50c-104 0 -203.667 20.5 -299 61.5s-177.333 95.833 -246 164.5s-123.5 150.667 -164.5 246
s-61.5 195 -61.5 299s20.5 203.667 61.5 299s95.833 177.333 164.5 246s150.667 123.5 246 164.5s195 61.5 299 61.5s203.667 -20.5 299 -61.5s177.333 -95.833 246 -164.5s123.5 -150.667 164.5 -246s61.5 -195 61.5 -299s-20.5 -203.667 -61.5 -299
s-95.833 -177.333 -164.5 -246s-150.667 -123.5 -246 -164.5s-195 -61.5 -299 -61.5z" />
    <glyph glyph-name="uni24BF" unicode="J&#x20dd;" 
d="M636 576h126.001c0.666992 -27.333 10.167 -49.333 28.5 -66s42.166 -25 71.499 -25c35.333 0 62 10 80 30s27 48.333 27 85v481h130v-477c0 -73.333 -20.833 -129.833 -62.5 -169.5s-99.5 -59.5 -173.5 -59.5c-71.333 0 -127 19 -167 57s-60 86 -60 144zM900.001 78
c117.333 0 224.666 28.667 321.999 86s173.833 135.166 229.5 233.499s83.5 205.833 83.5 322.5s-27.833 224.167 -83.5 322.5s-132.167 176.166 -229.5 233.499s-204.666 86 -321.999 86s-224.666 -28.667 -321.999 -86s-173.833 -135.166 -229.5 -233.499
s-83.5 -205.833 -83.5 -322.5s27.833 -224.167 83.5 -322.5s132.167 -176.166 229.5 -233.499s204.666 -86 321.999 -86zM900.001 -50c-104 0 -203.667 20.5 -299 61.5s-177.333 95.833 -246 164.5s-123.5 150.667 -164.5 246s-61.5 195 -61.5 299s20.5 203.667 61.5 299
s95.833 177.333 164.5 246s150.667 123.5 246 164.5s195 61.5 299 61.5s203.667 -20.5 299 -61.5s177.333 -95.833 246 -164.5s123.5 -150.667 164.5 -246s61.5 -195 61.5 -299s-20.5 -203.667 -61.5 -299s-95.833 -177.333 -164.5 -246s-150.667 -123.5 -246 -164.5
s-195 -61.5 -299 -61.5z" />
    <glyph glyph-name="uni24C0" unicode="K&#x20dd;" 
d="M1215 1081l-263 -297l274 -396h-158l-212 312l-78 -84v-228h-130v693h130v-317h5l287 317h145zM900 78c117.333 0 224.666 28.667 321.999 86s173.833 135.166 229.5 233.499s83.5 205.833 83.5 322.5s-27.833 224.167 -83.5 322.5s-132.167 176.166 -229.5 233.499
s-204.666 86 -321.999 86s-224.666 -28.667 -321.999 -86s-173.833 -135.166 -229.5 -233.499s-83.5 -205.833 -83.5 -322.5s27.833 -224.167 83.5 -322.5s132.167 -176.166 229.5 -233.499s204.666 -86 321.999 -86zM900 -50c-104 0 -203.667 20.5 -299 61.5
s-177.333 95.833 -246 164.5s-123.5 150.667 -164.5 246s-61.5 195 -61.5 299s20.5 203.667 61.5 299s95.833 177.333 164.5 246s150.667 123.5 246 164.5s195 61.5 299 61.5s203.667 -20.5 299 -61.5s177.333 -95.833 246 -164.5s123.5 -150.667 164.5 -246
s61.5 -195 61.5 -299s-20.5 -203.667 -61.5 -299s-95.833 -177.333 -164.5 -246s-150.667 -123.5 -246 -164.5s-195 -61.5 -299 -61.5z" />
    <glyph glyph-name="uni24C1" unicode="L&#x20dd;" 
d="M1168 495v-107h-446v693h131v-586h315zM900 78c117.333 0 224.666 28.667 321.999 86s173.833 135.166 229.5 233.499s83.5 205.833 83.5 322.5s-27.833 224.167 -83.5 322.5s-132.167 176.166 -229.5 233.499s-204.666 86 -321.999 86s-224.666 -28.667 -321.999 -86
s-173.833 -135.166 -229.5 -233.499s-83.5 -205.833 -83.5 -322.5s27.833 -224.167 83.5 -322.5s132.167 -176.166 229.5 -233.499s204.666 -86 321.999 -86zM900 -50c-104 0 -203.667 20.5 -299 61.5s-177.333 95.833 -246 164.5s-123.5 150.667 -164.5 246
s-61.5 195 -61.5 299s20.5 203.667 61.5 299s95.833 177.333 164.5 246s150.667 123.5 246 164.5s195 61.5 299 61.5s203.667 -20.5 299 -61.5s177.333 -95.833 246 -164.5s123.5 -150.667 164.5 -246s61.5 -195 61.5 -299s-20.5 -203.667 -61.5 -299
s-95.833 -177.333 -164.5 -246s-150.667 -123.5 -246 -164.5s-195 -61.5 -299 -61.5z" />
    <glyph glyph-name="uni24C2" unicode="M&#x20dd;" 
d="M668 388h-117v693h132l216 -533h4l216 533h130v-693h-117v473h-6l-180 -453h-91l-181 453h-6v-473zM900 78c117.333 0 224.666 28.667 321.999 86s173.833 135.166 229.5 233.499s83.5 205.833 83.5 322.5s-27.833 224.167 -83.5 322.5s-132.167 176.166 -229.5 233.499
s-204.666 86 -321.999 86s-224.666 -28.667 -321.999 -86s-173.833 -135.166 -229.5 -233.499s-83.5 -205.833 -83.5 -322.5s27.833 -224.167 83.5 -322.5s132.167 -176.166 229.5 -233.499s204.666 -86 321.999 -86zM900 -50c-104 0 -203.667 20.5 -299 61.5
s-177.333 95.833 -246 164.5s-123.5 150.667 -164.5 246s-61.5 195 -61.5 299s20.5 203.667 61.5 299s95.833 177.333 164.5 246s150.667 123.5 246 164.5s195 61.5 299 61.5s203.667 -20.5 299 -61.5s177.333 -95.833 246 -164.5s123.5 -150.667 164.5 -246
s61.5 -195 61.5 -299s-20.5 -203.667 -61.5 -299s-95.833 -177.333 -164.5 -246s-150.667 -123.5 -246 -164.5s-195 -61.5 -299 -61.5z" />
    <glyph glyph-name="uni24C3" unicode="N&#x20dd;" 
d="M738 388h-124v693h111l331 -482h6v482h124v-693h-111l-332 484h-5v-484zM900 78c117.333 0 224.666 28.667 321.999 86s173.833 135.166 229.5 233.499s83.5 205.833 83.5 322.5s-27.833 224.167 -83.5 322.5s-132.167 176.166 -229.5 233.499s-204.666 86 -321.999 86
s-224.666 -28.667 -321.999 -86s-173.833 -135.166 -229.5 -233.499s-83.5 -205.833 -83.5 -322.5s27.833 -224.167 83.5 -322.5s132.167 -176.166 229.5 -233.499s204.666 -86 321.999 -86zM900 -50c-104 0 -203.667 20.5 -299 61.5s-177.333 95.833 -246 164.5
s-123.5 150.667 -164.5 246s-61.5 195 -61.5 299s20.5 203.667 61.5 299s95.833 177.333 164.5 246s150.667 123.5 246 164.5s195 61.5 299 61.5s203.667 -20.5 299 -61.5s177.333 -95.833 246 -164.5s123.5 -150.667 164.5 -246s61.5 -195 61.5 -299
s-20.5 -203.667 -61.5 -299s-95.833 -177.333 -164.5 -246s-150.667 -123.5 -246 -164.5s-195 -61.5 -299 -61.5z" />
    <glyph glyph-name="uni24C4" unicode="O&#x20dd;" 
d="M900 480c56 0 102.333 22.5 139 67.5s55 107.167 55 186.5c0 80 -18.333 142.5 -55 187.5s-83 67.5 -139 67.5s-102.333 -22.5 -139 -67.5s-55 -107.5 -55 -187.5c0 -79.333 18.333 -141.5 55 -186.5s83 -67.5 139 -67.5zM900 375c-93.333 0 -171 32.167 -233 96.5
s-93 151.833 -93 262.5c0 111.333 31 199.166 93 263.499s139.667 96.5 233 96.5s171 -32.167 233 -96.5s93 -152.166 93 -263.499c0 -110.667 -31 -198.167 -93 -262.5s-139.667 -96.5 -233 -96.5zM900 78c117.333 0 224.666 28.667 321.999 86
s173.833 135.166 229.5 233.499s83.5 205.833 83.5 322.5s-27.833 224.167 -83.5 322.5s-132.167 176.166 -229.5 233.499s-204.666 86 -321.999 86s-224.666 -28.667 -321.999 -86s-173.833 -135.166 -229.5 -233.499s-83.5 -205.833 -83.5 -322.5
s27.833 -224.167 83.5 -322.5s132.167 -176.166 229.5 -233.499s204.666 -86 321.999 -86zM900 -50c-104 0 -203.667 20.5 -299 61.5s-177.333 95.833 -246 164.5s-123.5 150.667 -164.5 246s-61.5 195 -61.5 299s20.5 203.667 61.5 299s95.833 177.333 164.5 246
s150.667 123.5 246 164.5s195 61.5 299 61.5s203.667 -20.5 299 -61.5s177.333 -95.833 246 -164.5s123.5 -150.667 164.5 -246s61.5 -195 61.5 -299s-20.5 -203.667 -61.5 -299s-95.833 -177.333 -164.5 -246s-150.667 -123.5 -246 -164.5s-195 -61.5 -299 -61.5z" />
    <glyph glyph-name="uni24C5" unicode="P&#x20dd;" 
d="M962 1081c74.667 0 133.666 -21.332 176.999 -63.999s65 -97 65 -163c0 -66.667 -21.667 -120.834 -65 -162.501s-102.666 -62.5 -177.999 -62.5h-153v-241h-129v693h283zM1071 854.001c0 40 -11.5 71 -34.5 93s-55.167 33 -96.5 33h-132v-251h132
c41.333 0 73.5 10.833 96.5 32.5s34.5 52.5 34.5 92.5zM899.999 78.001c117.333 0 224.666 28.667 321.999 86s173.833 135.166 229.5 233.499s83.5 205.833 83.5 322.5s-27.833 224.167 -83.5 322.5s-132.167 176.166 -229.5 233.499s-204.666 86 -321.999 86
s-224.666 -28.667 -321.999 -86s-173.833 -135.166 -229.5 -233.499s-83.5 -205.833 -83.5 -322.5s27.833 -224.167 83.5 -322.5s132.167 -176.166 229.5 -233.499s204.666 -86 321.999 -86zM899.999 -49.999c-104 0 -203.667 20.5 -299 61.5s-177.333 95.833 -246 164.5
s-123.5 150.667 -164.5 246s-61.5 195 -61.5 299s20.5 203.667 61.5 299s95.833 177.333 164.5 246s150.667 123.5 246 164.5s195 61.5 299 61.5s203.667 -20.5 299 -61.5s177.333 -95.833 246 -164.5s123.5 -150.667 164.5 -246s61.5 -195 61.5 -299
s-20.5 -203.667 -61.5 -299s-95.833 -177.333 -164.5 -246s-150.667 -123.5 -246 -164.5s-195 -61.5 -299 -61.5z" />
    <glyph glyph-name="uni24C6" unicode="Q&#x20dd;" 
d="M1200 319h-127.999l-56 76c-36.667 -13.333 -75.334 -20 -116.001 -20c-93.333 0 -171 32.167 -233 96.5s-93 151.833 -93 262.5c0 111.333 31 199.166 93 263.499s139.667 96.5 233 96.5s171 -32.167 233 -96.5s93 -152.166 93 -263.499
c0 -125.333 -40 -221.333 -120 -288zM900.001 480c18.667 0 35 2.33301 49 7l-84 115h126l44 -60c39.333 46.667 59 110.667 59 192c0 80 -18.333 142.5 -55 187.5s-83 67.5 -139 67.5s-102.333 -22.5 -139 -67.5s-55 -107.5 -55 -187.5c0 -79.333 18.333 -141.5 55 -186.5
s83 -67.5 139 -67.5zM900.001 78c117.333 0 224.666 28.667 321.999 86s173.833 135.166 229.5 233.499s83.5 205.833 83.5 322.5s-27.833 224.167 -83.5 322.5s-132.167 176.166 -229.5 233.499s-204.666 86 -321.999 86s-224.666 -28.667 -321.999 -86
s-173.833 -135.166 -229.5 -233.499s-83.5 -205.833 -83.5 -322.5s27.833 -224.167 83.5 -322.5s132.167 -176.166 229.5 -233.499s204.666 -86 321.999 -86zM900.001 -50c-104 0 -203.667 20.5 -299 61.5s-177.333 95.833 -246 164.5s-123.5 150.667 -164.5 246
s-61.5 195 -61.5 299s20.5 203.667 61.5 299s95.833 177.333 164.5 246s150.667 123.5 246 164.5s195 61.5 299 61.5s203.667 -20.5 299 -61.5s177.333 -95.833 246 -164.5s123.5 -150.667 164.5 -246s61.5 -195 61.5 -299s-20.5 -203.667 -61.5 -299
s-95.833 -177.333 -164.5 -246s-150.667 -123.5 -246 -164.5s-195 -61.5 -299 -61.5z" />
    <glyph glyph-name="uni24C7" unicode="R&#x20dd;" 
d="M934 1081c77.333 0 138.167 -19.5 182.5 -58.5s66.5 -91.5 66.5 -157.5c0 -47.333 -12.667 -88 -38 -122s-57 -58 -95 -72l146 -283h-146l-128 263h-142v-263h-128v693h282zM780.001 747l132 0.000976562c43.333 0 77 9.66699 101 29s36 47.666 36 84.999
c0 38 -12 67.5 -36 88.5s-56.333 31.5 -97 31.5h-136v-234zM900.001 78.001c117.333 0 224.666 28.667 321.999 86s173.833 135.166 229.5 233.499s83.5 205.833 83.5 322.5s-27.833 224.167 -83.5 322.5s-132.167 176.166 -229.5 233.499s-204.666 86 -321.999 86
s-224.666 -28.667 -321.999 -86s-173.833 -135.166 -229.5 -233.499s-83.5 -205.833 -83.5 -322.5s27.833 -224.167 83.5 -322.5s132.167 -176.166 229.5 -233.499s204.666 -86 321.999 -86zM900.001 -49.999c-104 0 -203.667 20.5 -299 61.5s-177.333 95.833 -246 164.5
s-123.5 150.667 -164.5 246s-61.5 195 -61.5 299s20.5 203.667 61.5 299s95.833 177.333 164.5 246s150.667 123.5 246 164.5s195 61.5 299 61.5s203.667 -20.5 299 -61.5s177.333 -95.833 246 -164.5s123.5 -150.667 164.5 -246s61.5 -195 61.5 -299
s-20.5 -203.667 -61.5 -299s-95.833 -177.333 -164.5 -246s-150.667 -123.5 -246 -164.5s-195 -61.5 -299 -61.5z" />
    <glyph glyph-name="uni24C8" unicode="S&#x20dd;" 
d="M620 582l127.002 -0.000976562c3.33301 -32 19.333 -57.833 48 -77.5s65.334 -29.5 110.001 -29.5s80.167 9.33301 106.5 28s39.5 43.667 39.5 75c0 24 -9 43.5 -27 58.5s-47.333 27.5 -88 37.5l-117 26c-120 28 -180 91 -180 189c0 61.333 24.5 111 73.5 149
s113.167 57 192.5 57c77.333 0 140.666 -18.667 189.999 -56s74.333 -86.333 75 -147h-124c-2.66699 31.333 -16.834 56.5 -42.501 75.5s-58.834 28.5 -99.501 28.5c-40 0 -72.333 -9.33301 -97 -28s-37 -42.667 -37 -72c0 -43.333 33.333 -72.333 100 -87l117 -26
c66 -15.333 114.667 -38.666 146 -69.999s47 -72.666 47 -123.999c0 -66 -25.333 -118.167 -76 -156.5s-119.667 -57.5 -207 -57.5c-83.333 0 -150 18.667 -200 56s-75.667 87.666 -77 150.999zM900.002 77.999c117.333 0 224.666 28.667 321.999 86
s173.833 135.166 229.5 233.499s83.5 205.833 83.5 322.5s-27.833 224.167 -83.5 322.5s-132.167 176.166 -229.5 233.499s-204.666 86 -321.999 86s-224.666 -28.667 -321.999 -86s-173.833 -135.166 -229.5 -233.499s-83.5 -205.833 -83.5 -322.5
s27.833 -224.167 83.5 -322.5s132.167 -176.166 229.5 -233.499s204.666 -86 321.999 -86zM900.002 -50.001c-104 0 -203.667 20.5 -299 61.5s-177.333 95.833 -246 164.5s-123.5 150.667 -164.5 246s-61.5 195 -61.5 299s20.5 203.667 61.5 299s95.833 177.333 164.5 246
s150.667 123.5 246 164.5s195 61.5 299 61.5s203.667 -20.5 299 -61.5s177.333 -95.833 246 -164.5s123.5 -150.667 164.5 -246s61.5 -195 61.5 -299s-20.5 -203.667 -61.5 -299s-95.833 -177.333 -164.5 -246s-150.667 -123.5 -246 -164.5s-195 -61.5 -299 -61.5z" />
    <glyph glyph-name="uni24C9" unicode="T&#x20dd;" 
d="M966 368h-132v588h-210v105h552v-105h-210v-588zM900 78c117.333 0 224.666 28.667 321.999 86s173.833 135.166 229.5 233.499s83.5 205.833 83.5 322.5s-27.833 224.167 -83.5 322.5s-132.167 176.166 -229.5 233.499s-204.666 86 -321.999 86
s-224.666 -28.667 -321.999 -86s-173.833 -135.166 -229.5 -233.499s-83.5 -205.833 -83.5 -322.5s27.833 -224.167 83.5 -322.5s132.167 -176.166 229.5 -233.499s204.666 -86 321.999 -86zM900 -50c-104 0 -203.667 20.5 -299 61.5s-177.333 95.833 -246 164.5
s-123.5 150.667 -164.5 246s-61.5 195 -61.5 299s20.5 203.667 61.5 299s95.833 177.333 164.5 246s150.667 123.5 246 164.5s195 61.5 299 61.5s203.667 -20.5 299 -61.5s177.333 -95.833 246 -164.5s123.5 -150.667 164.5 -246s61.5 -195 61.5 -299
s-20.5 -203.667 -61.5 -299s-95.833 -177.333 -164.5 -246s-150.667 -123.5 -246 -164.5s-195 -61.5 -299 -61.5z" />
    <glyph glyph-name="uni24CA" unicode="U&#x20dd;" 
d="M900 462c48 0 86.3311 13.667 114.998 41s43 65.666 43 114.999v443h130v-454c0 -76 -26.167 -137 -78.5 -183s-122.166 -69 -209.499 -69s-157.166 23 -209.499 69s-78.5 107 -78.5 183v454h130v-443c0 -49.333 14.333 -87.666 43 -114.999s67 -41 115 -41zM899.998 78
c117.333 0 224.666 28.667 321.999 86s173.833 135.166 229.5 233.499s83.5 205.833 83.5 322.5s-27.833 224.167 -83.5 322.5s-132.167 176.166 -229.5 233.499s-204.666 86 -321.999 86s-224.666 -28.667 -321.999 -86s-173.833 -135.166 -229.5 -233.499
s-83.5 -205.833 -83.5 -322.5s27.833 -224.167 83.5 -322.5s132.167 -176.166 229.5 -233.499s204.666 -86 321.999 -86zM899.998 -50c-104 0 -203.667 20.5 -299 61.5s-177.333 95.833 -246 164.5s-123.5 150.667 -164.5 246s-61.5 195 -61.5 299s20.5 203.667 61.5 299
s95.833 177.333 164.5 246s150.667 123.5 246 164.5s195 61.5 299 61.5s203.667 -20.5 299 -61.5s177.333 -95.833 246 -164.5s123.5 -150.667 164.5 -246s61.5 -195 61.5 -299s-20.5 -203.667 -61.5 -299s-95.833 -177.333 -164.5 -246s-150.667 -123.5 -246 -164.5
s-195 -61.5 -299 -61.5z" />
    <glyph glyph-name="uni24CB" unicode="V&#x20dd;" 
d="M822 368l-250 693h151l174 -555h6l174 555h151l-250 -693h-156zM900 78c117.333 0 224.666 28.667 321.999 86s173.833 135.166 229.5 233.499s83.5 205.833 83.5 322.5s-27.833 224.167 -83.5 322.5s-132.167 176.166 -229.5 233.499s-204.666 86 -321.999 86
s-224.666 -28.667 -321.999 -86s-173.833 -135.166 -229.5 -233.499s-83.5 -205.833 -83.5 -322.5s27.833 -224.167 83.5 -322.5s132.167 -176.166 229.5 -233.499s204.666 -86 321.999 -86zM900 -50c-104 0 -203.667 20.5 -299 61.5s-177.333 95.833 -246 164.5
s-123.5 150.667 -164.5 246s-61.5 195 -61.5 299s20.5 203.667 61.5 299s95.833 177.333 164.5 246s150.667 123.5 246 164.5s195 61.5 299 61.5s203.667 -20.5 299 -61.5s177.333 -95.833 246 -164.5s123.5 -150.667 164.5 -246s61.5 -195 61.5 -299
s-20.5 -203.667 -61.5 -299s-95.833 -177.333 -164.5 -246s-150.667 -123.5 -246 -164.5s-195 -61.5 -299 -61.5z" />
    <glyph glyph-name="uni24CC" unicode="W&#x20dd;" 
d="M898 869l-140 -501h-119l-195 693h143l117 -518h6l133 518h114l133 -518h6l117 518h143l-195 -693h-119l-140 501h-4zM900 78c117.333 0 224.666 28.667 321.999 86s173.833 135.166 229.5 233.499s83.5 205.833 83.5 322.5s-27.833 224.167 -83.5 322.5
s-132.167 176.166 -229.5 233.499s-204.666 86 -321.999 86s-224.666 -28.667 -321.999 -86s-173.833 -135.166 -229.5 -233.499s-83.5 -205.833 -83.5 -322.5s27.833 -224.167 83.5 -322.5s132.167 -176.166 229.5 -233.499s204.666 -86 321.999 -86zM900 -50
c-104 0 -203.667 20.5 -299 61.5s-177.333 95.833 -246 164.5s-123.5 150.667 -164.5 246s-61.5 195 -61.5 299s20.5 203.667 61.5 299s95.833 177.333 164.5 246s150.667 123.5 246 164.5s195 61.5 299 61.5s203.667 -20.5 299 -61.5s177.333 -95.833 246 -164.5
s123.5 -150.667 164.5 -246s61.5 -195 61.5 -299s-20.5 -203.667 -61.5 -299s-95.833 -177.333 -164.5 -246s-150.667 -123.5 -246 -164.5s-195 -61.5 -299 -61.5z" />
    <glyph glyph-name="uni24CD" unicode="X&#x20dd;" 
d="M1214 1081l-233 -348l230 -345h-152l-161 253h-6l-163 -253h-143l229 349l-227 344h155l159 -256h6l158 256h148zM900 78c117.333 0 224.666 28.667 321.999 86s173.833 135.166 229.5 233.499s83.5 205.833 83.5 322.5s-27.833 224.167 -83.5 322.5
s-132.167 176.166 -229.5 233.499s-204.666 86 -321.999 86s-224.666 -28.667 -321.999 -86s-173.833 -135.166 -229.5 -233.499s-83.5 -205.833 -83.5 -322.5s27.833 -224.167 83.5 -322.5s132.167 -176.166 229.5 -233.499s204.666 -86 321.999 -86zM900 -50
c-104 0 -203.667 20.5 -299 61.5s-177.333 95.833 -246 164.5s-123.5 150.667 -164.5 246s-61.5 195 -61.5 299s20.5 203.667 61.5 299s95.833 177.333 164.5 246s150.667 123.5 246 164.5s195 61.5 299 61.5s203.667 -20.5 299 -61.5s177.333 -95.833 246 -164.5
s123.5 -150.667 164.5 -246s61.5 -195 61.5 -299s-20.5 -203.667 -61.5 -299s-95.833 -177.333 -164.5 -246s-150.667 -123.5 -246 -164.5s-195 -61.5 -299 -61.5z" />
    <glyph glyph-name="uni24CE" unicode="Y&#x20dd;" 
d="M966 383h-131v273l-243 420h145l162 -297h5l162 297h142l-242 -418v-275zM900 78c117.333 0 224.666 28.667 321.999 86s173.833 135.166 229.5 233.499s83.5 205.833 83.5 322.5s-27.833 224.167 -83.5 322.5s-132.167 176.166 -229.5 233.499s-204.666 86 -321.999 86
s-224.666 -28.667 -321.999 -86s-173.833 -135.166 -229.5 -233.499s-83.5 -205.833 -83.5 -322.5s27.833 -224.167 83.5 -322.5s132.167 -176.166 229.5 -233.499s204.666 -86 321.999 -86zM900 -50c-104 0 -203.667 20.5 -299 61.5s-177.333 95.833 -246 164.5
s-123.5 150.667 -164.5 246s-61.5 195 -61.5 299s20.5 203.667 61.5 299s95.833 177.333 164.5 246s150.667 123.5 246 164.5s195 61.5 299 61.5s203.667 -20.5 299 -61.5s177.333 -95.833 246 -164.5s123.5 -150.667 164.5 -246s61.5 -195 61.5 -299
s-20.5 -203.667 -61.5 -299s-95.833 -177.333 -164.5 -246s-150.667 -123.5 -246 -164.5s-195 -61.5 -299 -61.5z" />
    <glyph glyph-name="uni24CF" unicode="Z&#x20dd;" 
d="M635 388v83l361 499v7h-350v104h509v-83l-360 -499v-7h370v-104h-530zM900 78c117.333 0 224.666 28.667 321.999 86s173.833 135.166 229.5 233.499s83.5 205.833 83.5 322.5s-27.833 224.167 -83.5 322.5s-132.167 176.166 -229.5 233.499s-204.666 86 -321.999 86
s-224.666 -28.667 -321.999 -86s-173.833 -135.166 -229.5 -233.499s-83.5 -205.833 -83.5 -322.5s27.833 -224.167 83.5 -322.5s132.167 -176.166 229.5 -233.499s204.666 -86 321.999 -86zM900 -50c-104 0 -203.667 20.5 -299 61.5s-177.333 95.833 -246 164.5
s-123.5 150.667 -164.5 246s-61.5 195 -61.5 299s20.5 203.667 61.5 299s95.833 177.333 164.5 246s150.667 123.5 246 164.5s195 61.5 299 61.5s203.667 -20.5 299 -61.5s177.333 -95.833 246 -164.5s123.5 -150.667 164.5 -246s61.5 -195 61.5 -299
s-20.5 -203.667 -61.5 -299s-95.833 -177.333 -164.5 -246s-150.667 -123.5 -246 -164.5s-195 -61.5 -299 -61.5z" />
    <glyph glyph-name="uni24EA" unicode="&#x23;&#x20dd;" 
d="M900 486c44.667 0 79.834 21.833 105.501 65.5s38.5 104.834 38.5 183.501s-12.833 139.834 -38.5 183.501s-60.834 65.5 -105.501 65.5s-79.834 -21.833 -105.501 -65.5s-38.5 -104.834 -38.5 -183.501s12.833 -139.834 38.5 -183.501s60.834 -65.5 105.501 -65.5z
M900 376c-80 0 -144.667 31.833 -194 95.5s-74 151.5 -74 263.5s24.667 199.833 74 263.5s114 95.5 194 95.5s144.667 -31.833 194 -95.5s74 -151.5 74 -263.5s-24.667 -199.833 -74 -263.5s-114 -95.5 -194 -95.5zM900 78c117.333 0 224.666 28.667 321.999 86
s173.833 135.166 229.5 233.499s83.5 205.833 83.5 322.5s-27.833 224.167 -83.5 322.5s-132.167 176.166 -229.5 233.499s-204.666 86 -321.999 86s-224.666 -28.667 -321.999 -86s-173.833 -135.166 -229.5 -233.499s-83.5 -205.833 -83.5 -322.5
s27.833 -224.167 83.5 -322.5s132.167 -176.166 229.5 -233.499s204.666 -86 321.999 -86zM900 -50c-104 0 -203.667 20.5 -299 61.5s-177.333 95.833 -246 164.5s-123.5 150.667 -164.5 246s-61.5 195 -61.5 299s20.5 203.667 61.5 299s95.833 177.333 164.5 246
s150.667 123.5 246 164.5s195 61.5 299 61.5s203.667 -20.5 299 -61.5s177.333 -95.833 246 -164.5s123.5 -150.667 164.5 -246s61.5 -195 61.5 -299s-20.5 -203.667 -61.5 -299s-95.833 -177.333 -164.5 -246s-150.667 -123.5 -246 -164.5s-195 -61.5 -299 -61.5z" />
    <glyph glyph-name="uni24FF" unicode="&#x30;&#x20dd;&#x25cf;" 
d="M896 461c-46.667 0 -83 23.667 -109 71s-39 115 -39 203s13 155.667 39 203s62.333 71 109 71s83 -23.667 109 -71s39 -115 39 -203s-13 -155.667 -39 -203s-62.333 -71 -109 -71zM896 338c92 0 165.333 35.5 220 106.5s82 167.833 82 290.5s-27.333 219.5 -82 290.5
s-128 106.5 -220 106.5s-165.333 -35.5 -220 -106.5s-82 -167.833 -82 -290.5s27.333 -219.5 82 -290.5s128 -106.5 220 -106.5zM900 -50c-104 0 -203.667 20.5 -299 61.5s-177.333 95.833 -246 164.5s-123.5 150.667 -164.5 246s-61.5 195 -61.5 299s20.5 203.667 61.5 299
s95.833 177.333 164.5 246s150.667 123.5 246 164.5s195 61.5 299 61.5s203.667 -20.5 299 -61.5s177.333 -95.833 246 -164.5s123.5 -150.667 164.5 -246s61.5 -195 61.5 -299s-20.5 -203.667 -61.5 -299s-95.833 -177.333 -164.5 -246s-150.667 -123.5 -246 -164.5
s-195 -61.5 -299 -61.5z" />
    <glyph glyph-name="uni278A" unicode="&#x31;&#x20dd;&#x25cf;" 
d="M1013 353v765h-148l-191 -132v-140l187 128h1v-621h151zM900 -50c-104 0 -203.667 20.5 -299 61.5s-177.333 95.833 -246 164.5s-123.5 150.667 -164.5 246s-61.5 195 -61.5 299s20.5 203.667 61.5 299s95.833 177.333 164.5 246s150.667 123.5 246 164.5
s195 61.5 299 61.5s203.667 -20.5 299 -61.5s177.333 -95.833 246 -164.5s123.5 -150.667 164.5 -246s61.5 -195 61.5 -299s-20.5 -203.667 -61.5 -299s-95.833 -177.333 -164.5 -246s-150.667 -123.5 -246 -164.5s-195 -61.5 -299 -61.5z" />
    <glyph glyph-name="uni278B" unicode="&#x32;&#x20dd;&#x25cf;" 
d="M772 886l0.000976562 10.999c0 32 10.833 59.167 32.5 81.5s51.5 33.5 89.5 33.5c34 0 62.333 -10.167 85 -30.5s34 -45.833 34 -76.5c0 -20 -4.83301 -40.167 -14.5 -60.5s-19.667 -36.666 -30 -48.999s-24.833 -27.833 -43.5 -46.5l-293 -306v-91h546v122h-342l203 212
l48.5 54c10.333 12 22.666 28.333 36.999 49s24.5 41.167 30.5 61.5s9 42.166 9 65.499c0 62 -24.667 113.333 -74 154s-114 61 -194 61c-86 0 -152.5 -23.167 -199.5 -69.5s-70.5 -101.166 -70.5 -164.499v-11h146zM900.001 -50.001c-104 0 -203.667 20.5 -299 61.5
s-177.333 95.833 -246 164.5s-123.5 150.667 -164.5 246s-61.5 195 -61.5 299s20.5 203.667 61.5 299s95.833 177.333 164.5 246s150.667 123.5 246 164.5s195 61.5 299 61.5s203.667 -20.5 299 -61.5s177.333 -95.833 246 -164.5s123.5 -150.667 164.5 -246
s61.5 -195 61.5 -299s-20.5 -203.667 -61.5 -299s-95.833 -177.333 -164.5 -246s-150.667 -123.5 -246 -164.5s-195 -61.5 -299 -61.5z" />
    <glyph glyph-name="uni278C" unicode="&#x33;&#x20dd;&#x25cf;" 
d="M804 688h93c42 0 75.833 -10.667 101.5 -32s38.834 -49 39.501 -83c0 -34.667 -13.333 -62.834 -40 -84.501s-62 -32.5 -106 -32.5c-39.333 0.666992 -72.333 10.167 -99 28.5s-41.667 41.5 -45 69.5h-140c2.66699 -61.333 29.167 -112.666 79.5 -153.999
s118.166 -62 203.499 -62c86 0 157.667 21 215 63s85.666 98 84.999 168c-2 55.333 -20.167 98.833 -54.5 130.5s-72.5 49.834 -114.5 54.501c35.333 7.33301 68.333 27 99 59s45.667 72 45 120c-1.33301 58.667 -26.666 106.667 -75.999 144s-114 56 -194 56
c-83.333 -0.666992 -149 -21.334 -197 -62.001s-73 -91.667 -75 -153h144c1.33301 26.667 13.5 49.5 36.5 68.5s52.167 28.5 87.5 28.5c36 0 65.5 -9.5 88.5 -28.5s34.833 -43.833 35.5 -74.5c0 -30.667 -11.667 -56 -35 -76s-53 -30 -89 -30h-88v-118zM900 -50
c-104 0 -203.667 20.5 -299 61.5s-177.333 95.833 -246 164.5s-123.5 150.667 -164.5 246s-61.5 195 -61.5 299s20.5 203.667 61.5 299s95.833 177.333 164.5 246s150.667 123.5 246 164.5s195 61.5 299 61.5s203.667 -20.5 299 -61.5s177.333 -95.833 246 -164.5
s123.5 -150.667 164.5 -246s61.5 -195 61.5 -299s-20.5 -203.667 -61.5 -299s-95.833 -177.333 -164.5 -246s-150.667 -123.5 -246 -164.5s-195 -61.5 -299 -61.5z" />
    <glyph glyph-name="uni278D" unicode="&#x34;&#x20dd;&#x25cf;" 
d="M868 1118c-162.667 -253.333 -267.333 -421 -314 -503v-117h383v-145h145v145h100v120h-100v500h-214zM696.001 619c51.333 89.333 131.667 216 241 380v-381h-241v1zM900.002 -50c-104 0 -203.667 20.5 -299 61.5s-177.333 95.833 -246 164.5s-123.5 150.667 -164.5 246
s-61.5 195 -61.5 299s20.5 203.667 61.5 299s95.833 177.333 164.5 246s150.667 123.5 246 164.5s195 61.5 299 61.5s203.667 -20.5 299 -61.5s177.333 -95.833 246 -164.5s123.5 -150.667 164.5 -246s61.5 -195 61.5 -299s-20.5 -203.667 -61.5 -299
s-95.833 -177.333 -164.5 -246s-150.667 -123.5 -246 -164.5s-195 -61.5 -299 -61.5z" />
    <glyph glyph-name="uni278E" unicode="&#x35;&#x20dd;&#x25cf;" 
d="M619 552c3.33301 -62 30.501 -113.001 81.501 -153.001s116.833 -60 197.5 -60c88.667 0 160.667 25 216 75s83 115.667 83 197c0 76 -25 136.5 -75 181.5s-111.333 67.5 -184 67.5c-38 0 -70.833 -6.5 -98.5 -19.5s-48.167 -27.5 -61.5 -43.5l17 201h359v120h-483
l-35 -448h131c10.667 19.333 27.667 36.5 51 51.5s51.333 22.5 84 22.5c40.667 0 75.167 -12.667 103.5 -38s42.5 -58.666 42.5 -99.999c0 -45.333 -14.333 -81.333 -43 -108s-62.334 -40 -101.001 -40c-35.333 0 -66.5 8.16699 -93.5 24.5s-43.5 39.5 -49.5 69.5h-142z
M900.001 -50.001c-104 0 -203.667 20.5 -299 61.5s-177.333 95.833 -246 164.5s-123.5 150.667 -164.5 246s-61.5 195 -61.5 299s20.5 203.667 61.5 299s95.833 177.333 164.5 246s150.667 123.5 246 164.5s195 61.5 299 61.5s203.667 -20.5 299 -61.5
s177.333 -95.833 246 -164.5s123.5 -150.667 164.5 -246s61.5 -195 61.5 -299s-20.5 -203.667 -61.5 -299s-95.833 -177.333 -164.5 -246s-150.667 -123.5 -246 -164.5s-195 -61.5 -299 -61.5z" />
    <glyph glyph-name="uni278F" unicode="&#x36;&#x20dd;&#x25cf;" 
d="M1185 606c0 70.667 -21.835 128.999 -65.502 174.999s-99.167 69 -166.5 69c-56 0 -100.333 -15.667 -133 -47l-8 2c2.66699 4.66699 14.667 22.334 36 53.001c72.667 99.333 139.334 186 200.001 260h-164c-8 -9.33301 -36 -46.666 -84 -111.999s-74.333 -102 -79 -110
c-72 -102 -108 -196 -108 -282c0 -82 26.5 -148.333 79.5 -199s122.167 -76 207.5 -76c84.667 0 153.334 24.667 206.001 74s79 113.666 79 192.999zM751.998 600.999c0 42 14 77.167 42 105.5s63 42.5 105 42.5s77 -14.167 105 -42.5s42 -63.5 42 -105.5
s-14 -77.167 -42 -105.5s-63 -42.5 -105 -42.5s-77 14.167 -105 42.5s-42 63.5 -42 105.5zM899.998 -50.001c-104 0 -203.667 20.5 -299 61.5s-177.333 95.833 -246 164.5s-123.5 150.667 -164.5 246s-61.5 195 -61.5 299s20.5 203.667 61.5 299s95.833 177.333 164.5 246
s150.667 123.5 246 164.5s195 61.5 299 61.5s203.667 -20.5 299 -61.5s177.333 -95.833 246 -164.5s123.5 -150.667 164.5 -246s61.5 -195 61.5 -299s-20.5 -203.667 -61.5 -299s-95.833 -177.333 -164.5 -246s-150.667 -123.5 -246 -164.5s-195 -61.5 -299 -61.5z" />
    <glyph glyph-name="uni2790" unicode="&#x37;&#x20dd;&#x25cf;" 
d="M641 1108v-123h392v-1l-332 -641h159l325 645v120h-544zM900 -50c-104 0 -203.667 20.5 -299 61.5s-177.333 95.833 -246 164.5s-123.5 150.667 -164.5 246s-61.5 195 -61.5 299s20.5 203.667 61.5 299s95.833 177.333 164.5 246s150.667 123.5 246 164.5
s195 61.5 299 61.5s203.667 -20.5 299 -61.5s177.333 -95.833 246 -164.5s123.5 -150.667 164.5 -246s61.5 -195 61.5 -299s-20.5 -203.667 -61.5 -299s-95.833 -177.333 -164.5 -246s-150.667 -123.5 -246 -164.5s-195 -61.5 -299 -61.5z" />
    <glyph glyph-name="uni2791" unicode="&#x38;&#x20dd;&#x25cf;" 
d="M896 805c-37.333 0 -67.5 10 -90.5 30s-34.5 46 -34.5 78s11.5 58 34.5 78s53.167 30 90.5 30s67.5 -10 90.5 -30s34.5 -46 34.5 -78s-11.5 -58 -34.5 -78s-53.167 -30 -90.5 -30zM896 449c-44.667 0 -81.5 11.833 -110.5 35.5s-43.5 53.167 -43.5 88.5
c0 36 14.5 65.833 43.5 89.5s65.833 35.5 110.5 35.5s81.5 -11.833 110.5 -35.5s43.5 -53.5 43.5 -89.5c0 -35.333 -14.5 -64.833 -43.5 -88.5s-65.833 -35.5 -110.5 -35.5zM896 338c90.667 0 164 20.833 220 62.5s84 96.5 84 164.5c0 46.667 -14.667 87.167 -44 121.5
s-69 56.833 -119 67.5c41.333 14 73.5 36.167 96.5 66.5s34.5 66.166 34.5 107.499c0 60.667 -25.167 110 -75.5 148s-115.833 57 -196.5 57s-146.167 -19 -196.5 -57s-75.5 -87.333 -75.5 -148c0 -41.333 11.5 -77.166 34.5 -107.499s55.167 -52.5 96.5 -66.5
c-50 -10.667 -89.667 -33.167 -119 -67.5s-44 -74.833 -44 -121.5c0 -68 28 -122.833 84 -164.5s129.333 -62.5 220 -62.5zM900 -50c-104 0 -203.667 20.5 -299 61.5s-177.333 95.833 -246 164.5s-123.5 150.667 -164.5 246s-61.5 195 -61.5 299s20.5 203.667 61.5 299
s95.833 177.333 164.5 246s150.667 123.5 246 164.5s195 61.5 299 61.5s203.667 -20.5 299 -61.5s177.333 -95.833 246 -164.5s123.5 -150.667 164.5 -246s61.5 -195 61.5 -299s-20.5 -203.667 -61.5 -299s-95.833 -177.333 -164.5 -246s-150.667 -123.5 -246 -164.5
s-195 -61.5 -299 -61.5z" />
    <glyph glyph-name="uni2792" unicode="&#x39;&#x20dd;&#x25cf;" 
d="M1046 869c0 -42 -14 -77.167 -42 -105.5s-63 -42.5 -105 -42.5s-77 14.167 -105 42.5s-42 63.5 -42 105.5s14 77.167 42 105.5s63 42.5 105 42.5s77 -14.167 105 -42.5s42 -63.5 42 -105.5zM613 864c0 -70.667 21.834 -129 65.501 -175s99.167 -69 166.5 -69
c56 0 100.333 15.667 133 47l8 -2c-4 -7.33301 -15.333 -24.333 -34 -51c-70.667 -96 -138 -183.333 -202 -262h164c8 9.33301 36 46.666 84 111.999s74.333 102 79 110c72 102 108 196 108 282c0 82 -26.5 148.333 -79.5 199s-122.167 76 -207.5 76
c-84.667 0 -153.334 -24.667 -206.001 -74s-79 -113.666 -79 -192.999zM900.001 -50c-104 0 -203.667 20.5 -299 61.5s-177.333 95.833 -246 164.5s-123.5 150.667 -164.5 246s-61.5 195 -61.5 299s20.5 203.667 61.5 299s95.833 177.333 164.5 246s150.667 123.5 246 164.5
s195 61.5 299 61.5s203.667 -20.5 299 -61.5s177.333 -95.833 246 -164.5s123.5 -150.667 164.5 -246s61.5 -195 61.5 -299s-20.5 -203.667 -61.5 -299s-95.833 -177.333 -164.5 -246s-150.667 -123.5 -246 -164.5s-195 -61.5 -299 -61.5z" />
    <glyph glyph-name="uni1F130" unicode="A&#x20de;" 
d="M800 668h200l-95 287h-10zM710 388h-132l248 693h148l248 -693h-132l-62 186h-256zM416 1464h968c71.333 0 132.166 -24.833 182.499 -74.5s75.5 -109.5 75.5 -179.5v-976c0 -70 -25.167 -129.833 -75.5 -179.5s-111.166 -74.5 -182.499 -74.5h-968
c-71.333 0 -132.166 24.833 -182.499 74.5s-75.5 109.5 -75.5 179.5v976c0 70 25.167 129.833 75.5 179.5s111.166 74.5 182.499 74.5zM1513 1208c0 37.333 -14.167 69.667 -42.5 97s-61.833 41 -100.5 41h-940c-38.667 0 -72.167 -13.5 -100.5 -40.5
s-42.5 -59.5 -42.5 -97.5v-972c0 -37.333 14.167 -69.666 42.5 -96.999s61.833 -41 100.5 -41h940c38.667 0 72.167 13.667 100.5 41s42.5 59.666 42.5 96.999v972z" />
    <glyph glyph-name="uni1F131" unicode="B&#x20de;" 
d="M663 388v693h294c64.667 0 116 -15.333 154 -46s57 -72.334 57 -125.001c0 -40 -11 -73 -33 -99s-51.667 -43.667 -89 -53v-5c47.333 -5.33301 86 -22.666 116 -51.999s45 -68.666 45 -117.999c0 -60.667 -23.167 -108.334 -69.5 -143.001s-107.5 -52 -183.5 -52h-291z
M792 984l0.000976562 -194h98c100 0 150 33 150 99c0 29.333 -9.83301 52.5 -29.5 69.5s-46.834 25.5 -81.501 25.5h-137zM792.001 700v-215.001h111c60 0 103.5 8.5 130.5 25.5s40.5 43.167 40.5 78.5c0 34.667 -11.833 61.834 -35.5 81.501s-57.167 29.5 -100.5 29.5h-146
zM416.001 1464h968c71.333 0 132.166 -24.833 182.499 -74.5s75.5 -109.5 75.5 -179.5v-976c0 -70 -25.167 -129.833 -75.5 -179.5s-111.166 -74.5 -182.499 -74.5h-968c-71.333 0 -132.166 24.833 -182.499 74.5s-75.5 109.5 -75.5 179.5v976
c0 70 25.167 129.833 75.5 179.5s111.166 74.5 182.499 74.5zM1513 1208c0 37.333 -14.167 69.667 -42.5 97s-61.833 41 -100.5 41h-940c-38.667 0 -72.167 -13.5 -100.5 -40.5s-42.5 -59.5 -42.5 -97.5v-972c0 -37.333 14.167 -69.666 42.5 -96.999s61.833 -41 100.5 -41
h940c38.667 0 72.167 13.667 100.5 41s42.5 59.666 42.5 96.999v972z" />
    <glyph glyph-name="uni1F132" unicode="C&#x20de;" 
d="M1068 606l132 0.00292969c-10.667 -70 -43.334 -126 -98.001 -168s-122.667 -63 -204 -63c-96.667 0 -174.834 33 -234.501 99s-89.5 152.667 -89.5 260s29.833 194.166 89.5 260.499s137.834 99.5 234.501 99.5c83.333 0 152.5 -21.833 207.5 -65.5
s87.167 -101.834 96.5 -174.501h-130c-5.33301 39.333 -24.166 71.666 -56.499 96.999s-70.833 38 -115.5 38c-58.667 0 -105.667 -23.333 -141 -70s-53 -108.334 -53 -185.001s17.667 -138.167 53 -184.5s82.333 -69.5 141 -69.5c43.333 0 80.833 11.833 112.5 35.5
s50.167 53.834 55.5 90.501zM416 1464h968c71.333 0 132.166 -24.833 182.499 -74.5s75.5 -109.5 75.5 -179.5v-976c0 -70 -25.167 -129.833 -75.5 -179.5s-111.166 -74.5 -182.499 -74.5h-968c-71.333 0 -132.166 24.833 -182.499 74.5s-75.5 109.5 -75.5 179.5v976
c0 70 25.167 129.833 75.5 179.5s111.166 74.5 182.499 74.5zM1513 1208c0 37.333 -14.167 69.667 -42.5 97s-61.833 41 -100.5 41h-940c-38.667 0 -72.167 -13.5 -100.5 -40.5s-42.5 -59.5 -42.5 -97.5v-972c0 -37.333 14.167 -69.666 42.5 -96.999s61.833 -41 100.5 -41
h940c38.667 0 72.167 13.667 100.5 41s42.5 59.666 42.5 96.999v972z" />
    <glyph glyph-name="uni1F133" unicode="D&#x20de;" 
d="M633 1081h256c107.333 0 188 -29.5 242 -88.5s81 -144.5 81 -256.5s-27 -198 -81 -258s-134.667 -90 -242 -90h-256v693zM763 978v-487h110c136.667 0 205 81 205 243c0 162.667 -68.333 244 -205 244h-110zM416 1464h968c71.333 0 132.166 -24.833 182.499 -74.5
s75.5 -109.5 75.5 -179.5v-976c0 -70 -25.167 -129.833 -75.5 -179.5s-111.166 -74.5 -182.499 -74.5h-968c-71.333 0 -132.166 24.833 -182.499 74.5s-75.5 109.5 -75.5 179.5v976c0 70 25.167 129.833 75.5 179.5s111.166 74.5 182.499 74.5zM1513 1208
c0 37.333 -14.167 69.667 -42.5 97s-61.833 41 -100.5 41h-940c-38.667 0 -72.167 -13.5 -100.5 -40.5s-42.5 -59.5 -42.5 -97.5v-972c0 -37.333 14.167 -69.666 42.5 -96.999s61.833 -41 100.5 -41h940c38.667 0 72.167 13.667 100.5 41s42.5 59.666 42.5 96.999v972z" />
    <glyph glyph-name="uni1F134" unicode="E&#x20de;" 
d="M1135 491v-103h-459v693h459v-103h-330v-190h311v-98h-311v-199h330zM416 1464h968c71.333 0 132.166 -24.833 182.499 -74.5s75.5 -109.5 75.5 -179.5v-976c0 -70 -25.167 -129.833 -75.5 -179.5s-111.166 -74.5 -182.499 -74.5h-968
c-71.333 0 -132.166 24.833 -182.499 74.5s-75.5 109.5 -75.5 179.5v976c0 70 25.167 129.833 75.5 179.5s111.166 74.5 182.499 74.5zM1513 1208c0 37.333 -14.167 69.667 -42.5 97s-61.833 41 -100.5 41h-940c-38.667 0 -72.167 -13.5 -100.5 -40.5
s-42.5 -59.5 -42.5 -97.5v-972c0 -37.333 14.167 -69.666 42.5 -96.999s61.833 -41 100.5 -41h940c38.667 0 72.167 13.667 100.5 41s42.5 59.666 42.5 96.999v972z" />
    <glyph glyph-name="uni1F135" unicode="F&#x20de;" 
d="M838 388h-131v693h454v-104h-323v-205h295v-102h-295v-282zM416 1464h968c71.333 0 132.166 -24.833 182.499 -74.5s75.5 -109.5 75.5 -179.5v-976c0 -70 -25.167 -129.833 -75.5 -179.5s-111.166 -74.5 -182.499 -74.5h-968c-71.333 0 -132.166 24.833 -182.499 74.5
s-75.5 109.5 -75.5 179.5v976c0 70 25.167 129.833 75.5 179.5s111.166 74.5 182.499 74.5zM1513 1208c0 37.333 -14.167 69.667 -42.5 97s-61.833 41 -100.5 41h-940c-38.667 0 -72.167 -13.5 -100.5 -40.5s-42.5 -59.5 -42.5 -97.5v-972
c0 -37.333 14.167 -69.666 42.5 -96.999s61.833 -41 100.5 -41h940c38.667 0 72.167 13.667 100.5 41s42.5 59.666 42.5 96.999v972z" />
    <glyph glyph-name="uni1F136" unicode="G&#x20de;" 
d="M1071 604v57h-160v95h284v-122c0 -78 -25.5 -140.667 -76.5 -188s-123.833 -71 -218.5 -71c-97.333 0 -176 33.167 -236 99.5s-90 152.833 -90 259.5c0 107.333 30.167 194.166 90.5 260.499s138.833 99.5 235.5 99.5c81.333 0 149.333 -21 204 -63
s86.667 -97.667 96 -167h-130c-5.33301 36 -24 65.833 -56 89.5s-69.333 35.5 -112 35.5c-59.333 0 -106.833 -23.167 -142.5 -69.5s-53.5 -108.166 -53.5 -185.499s17.833 -139 53.5 -185s83.167 -69 142.5 -69c54 0 95.667 11.333 125 34s44 52.667 44 90zM416 1464h968
c71.333 0 132.166 -24.833 182.499 -74.5s75.5 -109.5 75.5 -179.5v-976c0 -70 -25.167 -129.833 -75.5 -179.5s-111.166 -74.5 -182.499 -74.5h-968c-71.333 0 -132.166 24.833 -182.499 74.5s-75.5 109.5 -75.5 179.5v976c0 70 25.167 129.833 75.5 179.5
s111.166 74.5 182.499 74.5zM1513 1208c0 37.333 -14.167 69.667 -42.5 97s-61.833 41 -100.5 41h-940c-38.667 0 -72.167 -13.5 -100.5 -40.5s-42.5 -59.5 -42.5 -97.5v-972c0 -37.333 14.167 -69.666 42.5 -96.999s61.833 -41 100.5 -41h940
c38.667 0 72.167 13.667 100.5 41s42.5 59.666 42.5 96.999v972z" />
    <glyph glyph-name="uni1F137" unicode="H&#x20de;" 
d="M1191 388h-130v304h-321v-304h-130v693h130v-286h321v286h130v-693zM416 1464h968c71.333 0 132.166 -24.833 182.499 -74.5s75.5 -109.5 75.5 -179.5v-976c0 -70 -25.167 -129.833 -75.5 -179.5s-111.166 -74.5 -182.499 -74.5h-968
c-71.333 0 -132.166 24.833 -182.499 74.5s-75.5 109.5 -75.5 179.5v976c0 70 25.167 129.833 75.5 179.5s111.166 74.5 182.499 74.5zM1513 1208c0 37.333 -14.167 69.667 -42.5 97s-61.833 41 -100.5 41h-940c-38.667 0 -72.167 -13.5 -100.5 -40.5
s-42.5 -59.5 -42.5 -97.5v-972c0 -37.333 14.167 -69.666 42.5 -96.999s61.833 -41 100.5 -41h940c38.667 0 72.167 13.667 100.5 41s42.5 59.666 42.5 96.999v972z" />
    <glyph glyph-name="uni1F138" unicode="I&#x20de;" 
d="M966 388h-132v693h132v-693zM416 1464h968c71.333 0 132.166 -24.833 182.499 -74.5s75.5 -109.5 75.5 -179.5v-976c0 -70 -25.167 -129.833 -75.5 -179.5s-111.166 -74.5 -182.499 -74.5h-968c-71.333 0 -132.166 24.833 -182.499 74.5s-75.5 109.5 -75.5 179.5v976
c0 70 25.167 129.833 75.5 179.5s111.166 74.5 182.499 74.5zM1513 1208c0 37.333 -14.167 69.667 -42.5 97s-61.833 41 -100.5 41h-940c-38.667 0 -72.167 -13.5 -100.5 -40.5s-42.5 -59.5 -42.5 -97.5v-972c0 -37.333 14.167 -69.666 42.5 -96.999s61.833 -41 100.5 -41
h940c38.667 0 72.167 13.667 100.5 41s42.5 59.666 42.5 96.999v972z" />
    <glyph glyph-name="uni1F139" unicode="J&#x20de;" 
d="M636 576h126.001c0.666992 -27.333 10.167 -49.333 28.5 -66s42.166 -25 71.499 -25c35.333 0 62 10 80 30s27 48.333 27 85v481h130v-477c0 -73.333 -20.833 -129.833 -62.5 -169.5s-99.5 -59.5 -173.5 -59.5c-71.333 0 -127 19 -167 57s-60 86 -60 144zM416.001 1464
h968c71.333 0 132.166 -24.833 182.499 -74.5s75.5 -109.5 75.5 -179.5v-976c0 -70 -25.167 -129.833 -75.5 -179.5s-111.166 -74.5 -182.499 -74.5h-968c-71.333 0 -132.166 24.833 -182.499 74.5s-75.5 109.5 -75.5 179.5v976c0 70 25.167 129.833 75.5 179.5
s111.166 74.5 182.499 74.5zM1513 1208c0 37.333 -14.167 69.667 -42.5 97s-61.833 41 -100.5 41h-940c-38.667 0 -72.167 -13.5 -100.5 -40.5s-42.5 -59.5 -42.5 -97.5v-972c0 -37.333 14.167 -69.666 42.5 -96.999s61.833 -41 100.5 -41h940
c38.667 0 72.167 13.667 100.5 41s42.5 59.666 42.5 96.999v972z" />
    <glyph glyph-name="uni1F13A" unicode="K&#x20de;" 
d="M1215 1081l-263 -297l274 -396h-158l-212 312l-78 -84v-228h-130v693h130v-317h5l287 317h145zM416 1464h968c71.333 0 132.166 -24.833 182.499 -74.5s75.5 -109.5 75.5 -179.5v-976c0 -70 -25.167 -129.833 -75.5 -179.5s-111.166 -74.5 -182.499 -74.5h-968
c-71.333 0 -132.166 24.833 -182.499 74.5s-75.5 109.5 -75.5 179.5v976c0 70 25.167 129.833 75.5 179.5s111.166 74.5 182.499 74.5zM1513 1208c0 37.333 -14.167 69.667 -42.5 97s-61.833 41 -100.5 41h-940c-38.667 0 -72.167 -13.5 -100.5 -40.5
s-42.5 -59.5 -42.5 -97.5v-972c0 -37.333 14.167 -69.666 42.5 -96.999s61.833 -41 100.5 -41h940c38.667 0 72.167 13.667 100.5 41s42.5 59.666 42.5 96.999v972z" />
    <glyph glyph-name="uni1F13B" unicode="L&#x20de;" 
d="M1178 495v-107h-446v693h131v-586h315zM416 1464h968c71.333 0 132.166 -24.833 182.499 -74.5s75.5 -109.5 75.5 -179.5v-976c0 -70 -25.167 -129.833 -75.5 -179.5s-111.166 -74.5 -182.499 -74.5h-968c-71.333 0 -132.166 24.833 -182.499 74.5
s-75.5 109.5 -75.5 179.5v976c0 70 25.167 129.833 75.5 179.5s111.166 74.5 182.499 74.5zM1513 1208c0 37.333 -14.167 69.667 -42.5 97s-61.833 41 -100.5 41h-940c-38.667 0 -72.167 -13.5 -100.5 -40.5s-42.5 -59.5 -42.5 -97.5v-972
c0 -37.333 14.167 -69.666 42.5 -96.999s61.833 -41 100.5 -41h940c38.667 0 72.167 13.667 100.5 41s42.5 59.666 42.5 96.999v972z" />
    <glyph glyph-name="uni1F13C" unicode="M&#x20de;" 
d="M668 388h-117v693h132l216 -533h4l216 533h130v-693h-117v473h-6l-180 -453h-91l-181 453h-6v-473zM416 1464h968c71.333 0 132.166 -24.833 182.499 -74.5s75.5 -109.5 75.5 -179.5v-976c0 -70 -25.167 -129.833 -75.5 -179.5s-111.166 -74.5 -182.499 -74.5h-968
c-71.333 0 -132.166 24.833 -182.499 74.5s-75.5 109.5 -75.5 179.5v976c0 70 25.167 129.833 75.5 179.5s111.166 74.5 182.499 74.5zM1513 1208c0 37.333 -14.167 69.667 -42.5 97s-61.833 41 -100.5 41h-940c-38.667 0 -72.167 -13.5 -100.5 -40.5
s-42.5 -59.5 -42.5 -97.5v-972c0 -37.333 14.167 -69.666 42.5 -96.999s61.833 -41 100.5 -41h940c38.667 0 72.167 13.667 100.5 41s42.5 59.666 42.5 96.999v972z" />
    <glyph glyph-name="uni1F13D" unicode="N&#x20de;" 
d="M738 388h-124v693h111l331 -482h6v482h124v-693h-111l-332 484h-5v-484zM416 1464h968c71.333 0 132.166 -24.833 182.499 -74.5s75.5 -109.5 75.5 -179.5v-976c0 -70 -25.167 -129.833 -75.5 -179.5s-111.166 -74.5 -182.499 -74.5h-968
c-71.333 0 -132.166 24.833 -182.499 74.5s-75.5 109.5 -75.5 179.5v976c0 70 25.167 129.833 75.5 179.5s111.166 74.5 182.499 74.5zM1513 1208c0 37.333 -14.167 69.667 -42.5 97s-61.833 41 -100.5 41h-940c-38.667 0 -72.167 -13.5 -100.5 -40.5
s-42.5 -59.5 -42.5 -97.5v-972c0 -37.333 14.167 -69.666 42.5 -96.999s61.833 -41 100.5 -41h940c38.667 0 72.167 13.667 100.5 41s42.5 59.666 42.5 96.999v972z" />
    <glyph glyph-name="uni1F13E" unicode="O&#x20de;" 
d="M900 480c56 0 102.333 22.5 139 67.5s55 107.167 55 186.5c0 80 -18.333 142.5 -55 187.5s-83 67.5 -139 67.5s-102.333 -22.5 -139 -67.5s-55 -107.5 -55 -187.5c0 -79.333 18.333 -141.5 55 -186.5s83 -67.5 139 -67.5zM900 375c-93.333 0 -171 32.167 -233 96.5
s-93 151.833 -93 262.5c0 111.333 31 199.166 93 263.499s139.667 96.5 233 96.5s171 -32.167 233 -96.5s93 -152.166 93 -263.499c0 -110.667 -31 -198.167 -93 -262.5s-139.667 -96.5 -233 -96.5zM416 1464h968c71.333 0 132.166 -24.833 182.499 -74.5
s75.5 -109.5 75.5 -179.5v-976c0 -70 -25.167 -129.833 -75.5 -179.5s-111.166 -74.5 -182.499 -74.5h-968c-71.333 0 -132.166 24.833 -182.499 74.5s-75.5 109.5 -75.5 179.5v976c0 70 25.167 129.833 75.5 179.5s111.166 74.5 182.499 74.5zM1513 1208
c0 37.333 -14.167 69.667 -42.5 97s-61.833 41 -100.5 41h-940c-38.667 0 -72.167 -13.5 -100.5 -40.5s-42.5 -59.5 -42.5 -97.5v-972c0 -37.333 14.167 -69.666 42.5 -96.999s61.833 -41 100.5 -41h940c38.667 0 72.167 13.667 100.5 41s42.5 59.666 42.5 96.999v972z" />
    <glyph glyph-name="uni1F13F" unicode="P&#x20de;" 
d="M962 1081c74.667 0 133.666 -21.332 176.999 -63.999s65 -97 65 -163c0 -66.667 -21.667 -120.834 -65 -162.501s-102.666 -62.5 -177.999 -62.5h-153v-241h-129v693h283zM1071 854.001c0 40 -11.5 71 -34.5 93s-55.167 33 -96.5 33h-132v-251h132
c41.333 0 73.5 10.833 96.5 32.5s34.5 52.5 34.5 92.5zM415.999 1464h968c71.333 0 132.166 -24.833 182.499 -74.5s75.5 -109.5 75.5 -179.5v-976c0 -70 -25.167 -129.833 -75.5 -179.5s-111.166 -74.5 -182.499 -74.5h-968c-71.333 0 -132.166 24.833 -182.499 74.5
s-75.5 109.5 -75.5 179.5v976c0 70 25.167 129.833 75.5 179.5s111.166 74.5 182.499 74.5zM1513 1208c0 37.333 -14.167 69.667 -42.5 97s-61.833 41 -100.5 41h-940c-38.667 0 -72.167 -13.5 -100.5 -40.5s-42.5 -59.5 -42.5 -97.5v-972
c0 -37.333 14.167 -69.666 42.5 -96.999s61.833 -41 100.5 -41h940c38.667 0 72.167 13.667 100.5 41s42.5 59.666 42.5 96.999v972z" />
    <glyph glyph-name="uni1F140" unicode="Q&#x20de;" 
d="M1200 319h-127.999l-56 76c-36.667 -13.333 -75.334 -20 -116.001 -20c-93.333 0 -171 32.167 -233 96.5s-93 151.833 -93 262.5c0 111.333 31 199.166 93 263.499s139.667 96.5 233 96.5s171 -32.167 233 -96.5s93 -152.166 93 -263.499
c0 -125.333 -40 -221.333 -120 -288zM900.001 480c18.667 0 35 2.33301 49 7l-84 115h126l44 -60c39.333 46.667 59 110.667 59 192c0 80 -18.333 142.5 -55 187.5s-83 67.5 -139 67.5s-102.333 -22.5 -139 -67.5s-55 -107.5 -55 -187.5c0 -79.333 18.333 -141.5 55 -186.5
s83 -67.5 139 -67.5zM416.001 1464h968c71.333 0 132.166 -24.833 182.499 -74.5s75.5 -109.5 75.5 -179.5v-976c0 -70 -25.167 -129.833 -75.5 -179.5s-111.166 -74.5 -182.499 -74.5h-968c-71.333 0 -132.166 24.833 -182.499 74.5s-75.5 109.5 -75.5 179.5v976
c0 70 25.167 129.833 75.5 179.5s111.166 74.5 182.499 74.5zM1513 1208c0 37.333 -14.167 69.667 -42.5 97s-61.833 41 -100.5 41h-940c-38.667 0 -72.167 -13.5 -100.5 -40.5s-42.5 -59.5 -42.5 -97.5v-972c0 -37.333 14.167 -69.666 42.5 -96.999s61.833 -41 100.5 -41
h940c38.667 0 72.167 13.667 100.5 41s42.5 59.666 42.5 96.999v972z" />
    <glyph glyph-name="uni1F141" unicode="R&#x20de;" 
d="M934 1081c77.333 0 138.167 -19.5 182.5 -58.5s66.5 -91.5 66.5 -157.5c0 -47.333 -12.667 -88 -38 -122s-57 -58 -95 -72l146 -283h-146l-128 263h-142v-263h-128v693h282zM780.001 747l132 0.000976562c43.333 0 77 9.66699 101 29s36 47.666 36 84.999
c0 38 -12 67.5 -36 88.5s-56.333 31.5 -97 31.5h-136v-234zM416.001 1464h968c71.333 0 132.166 -24.833 182.499 -74.5s75.5 -109.5 75.5 -179.5v-976c0 -70 -25.167 -129.833 -75.5 -179.5s-111.166 -74.5 -182.499 -74.5h-968c-71.333 0 -132.166 24.833 -182.499 74.5
s-75.5 109.5 -75.5 179.5v976c0 70 25.167 129.833 75.5 179.5s111.166 74.5 182.499 74.5zM1513 1208c0 37.333 -14.167 69.667 -42.5 97s-61.833 41 -100.5 41h-940c-38.667 0 -72.167 -13.5 -100.5 -40.5s-42.5 -59.5 -42.5 -97.5v-972
c0 -37.333 14.167 -69.666 42.5 -96.999s61.833 -41 100.5 -41h940c38.667 0 72.167 13.667 100.5 41s42.5 59.666 42.5 96.999v972z" />
    <glyph glyph-name="uni1F142" unicode="S&#x20de;" 
d="M620 582l127.002 -0.000976562c3.33301 -32 19.333 -57.833 48 -77.5s65.334 -29.5 110.001 -29.5s80.167 9.33301 106.5 28s39.5 43.667 39.5 75c0 24 -9 43.5 -27 58.5s-47.333 27.5 -88 37.5l-117 26c-120 28 -180 91 -180 189c0 61.333 24.5 111 73.5 149
s113.167 57 192.5 57c77.333 0 140.666 -18.667 189.999 -56s74.333 -86.333 75 -147h-124c-2.66699 31.333 -16.834 56.5 -42.501 75.5s-58.834 28.5 -99.501 28.5c-40 0 -72.333 -9.33301 -97 -28s-37 -42.667 -37 -72c0 -43.333 33.333 -72.333 100 -87l117 -26
c66 -15.333 114.667 -38.666 146 -69.999s47 -72.666 47 -123.999c0 -66 -25.333 -118.167 -76 -156.5s-119.667 -57.5 -207 -57.5c-83.333 0 -150 18.667 -200 56s-75.667 87.666 -77 150.999zM416.002 1464h968c71.333 0 132.166 -24.833 182.499 -74.5
s75.5 -109.5 75.5 -179.5v-976c0 -70 -25.167 -129.833 -75.5 -179.5s-111.166 -74.5 -182.499 -74.5h-968c-71.333 0 -132.166 24.833 -182.499 74.5s-75.5 109.5 -75.5 179.5v976c0 70 25.167 129.833 75.5 179.5s111.166 74.5 182.499 74.5zM1513 1208
c0 37.333 -14.167 69.667 -42.5 97s-61.833 41 -100.5 41h-940c-38.667 0 -72.167 -13.5 -100.5 -40.5s-42.5 -59.5 -42.5 -97.5v-972c0 -37.333 14.167 -69.666 42.5 -96.999s61.833 -41 100.5 -41h940c38.667 0 72.167 13.667 100.5 41s42.5 59.666 42.5 96.999v972z" />
    <glyph glyph-name="uni1F143" unicode="T&#x20de;" 
d="M966 388h-132v588h-210v105h552v-105h-210v-588zM416 1464h968c71.333 0 132.166 -24.833 182.499 -74.5s75.5 -109.5 75.5 -179.5v-976c0 -70 -25.167 -129.833 -75.5 -179.5s-111.166 -74.5 -182.499 -74.5h-968c-71.333 0 -132.166 24.833 -182.499 74.5
s-75.5 109.5 -75.5 179.5v976c0 70 25.167 129.833 75.5 179.5s111.166 74.5 182.499 74.5zM1513 1208c0 37.333 -14.167 69.667 -42.5 97s-61.833 41 -100.5 41h-940c-38.667 0 -72.167 -13.5 -100.5 -40.5s-42.5 -59.5 -42.5 -97.5v-972
c0 -37.333 14.167 -69.666 42.5 -96.999s61.833 -41 100.5 -41h940c38.667 0 72.167 13.667 100.5 41s42.5 59.666 42.5 96.999v972z" />
    <glyph glyph-name="uni1F144" unicode="U&#x20de;" 
d="M900 482c48 0 86.3311 13.667 114.998 41s43 65.666 43 114.999v443h130v-454c0 -76 -26.167 -137 -78.5 -183s-122.166 -69 -209.499 -69s-157.166 23 -209.499 69s-78.5 107 -78.5 183v454h130v-443c0 -49.333 14.333 -87.666 43 -114.999s67 -41 115 -41z
M415.998 1464h968c71.333 0 132.166 -24.833 182.499 -74.5s75.5 -109.5 75.5 -179.5v-976c0 -70 -25.167 -129.833 -75.5 -179.5s-111.166 -74.5 -182.499 -74.5h-968c-71.333 0 -132.166 24.833 -182.499 74.5s-75.5 109.5 -75.5 179.5v976
c0 70 25.167 129.833 75.5 179.5s111.166 74.5 182.499 74.5zM1513 1208c0 37.333 -14.167 69.667 -42.5 97s-61.833 41 -100.5 41h-940c-38.667 0 -72.167 -13.5 -100.5 -40.5s-42.5 -59.5 -42.5 -97.5v-972c0 -37.333 14.167 -69.666 42.5 -96.999s61.833 -41 100.5 -41
h940c38.667 0 72.167 13.667 100.5 41s42.5 59.666 42.5 96.999v972z" />
    <glyph glyph-name="uni1F145" unicode="V&#x20de;" 
d="M822 388l-250 693h151l174 -555h6l174 555h151l-250 -693h-156zM416 1464h968c71.333 0 132.166 -24.833 182.499 -74.5s75.5 -109.5 75.5 -179.5v-976c0 -70 -25.167 -129.833 -75.5 -179.5s-111.166 -74.5 -182.499 -74.5h-968
c-71.333 0 -132.166 24.833 -182.499 74.5s-75.5 109.5 -75.5 179.5v976c0 70 25.167 129.833 75.5 179.5s111.166 74.5 182.499 74.5zM1513 1208c0 37.333 -14.167 69.667 -42.5 97s-61.833 41 -100.5 41h-940c-38.667 0 -72.167 -13.5 -100.5 -40.5
s-42.5 -59.5 -42.5 -97.5v-972c0 -37.333 14.167 -69.666 42.5 -96.999s61.833 -41 100.5 -41h940c38.667 0 72.167 13.667 100.5 41s42.5 59.666 42.5 96.999v972z" />
    <glyph glyph-name="uni1F146" unicode="W&#x20de;" 
d="M898 889l-140 -501h-119l-195 693h143l117 -518h6l133 518h114l133 -518h6l117 518h143l-195 -693h-119l-140 501h-4zM416 1464h968c71.333 0 132.166 -24.833 182.499 -74.5s75.5 -109.5 75.5 -179.5v-976c0 -70 -25.167 -129.833 -75.5 -179.5
s-111.166 -74.5 -182.499 -74.5h-968c-71.333 0 -132.166 24.833 -182.499 74.5s-75.5 109.5 -75.5 179.5v976c0 70 25.167 129.833 75.5 179.5s111.166 74.5 182.499 74.5zM1513 1208c0 37.333 -14.167 69.667 -42.5 97s-61.833 41 -100.5 41h-940
c-38.667 0 -72.167 -13.5 -100.5 -40.5s-42.5 -59.5 -42.5 -97.5v-972c0 -37.333 14.167 -69.666 42.5 -96.999s61.833 -41 100.5 -41h940c38.667 0 72.167 13.667 100.5 41s42.5 59.666 42.5 96.999v972z" />
    <glyph glyph-name="uni1F147" unicode="X&#x20de;" 
d="M1214 1081l-233 -348l230 -345h-152l-161 253h-6l-163 -253h-143l229 349l-227 344h155l159 -256h6l158 256h148zM416 1464h968c71.333 0 132.166 -24.833 182.499 -74.5s75.5 -109.5 75.5 -179.5v-976c0 -70 -25.167 -129.833 -75.5 -179.5
s-111.166 -74.5 -182.499 -74.5h-968c-71.333 0 -132.166 24.833 -182.499 74.5s-75.5 109.5 -75.5 179.5v976c0 70 25.167 129.833 75.5 179.5s111.166 74.5 182.499 74.5zM1513 1208c0 37.333 -14.167 69.667 -42.5 97s-61.833 41 -100.5 41h-940
c-38.667 0 -72.167 -13.5 -100.5 -40.5s-42.5 -59.5 -42.5 -97.5v-972c0 -37.333 14.167 -69.666 42.5 -96.999s61.833 -41 100.5 -41h940c38.667 0 72.167 13.667 100.5 41s42.5 59.666 42.5 96.999v972z" />
    <glyph glyph-name="uni1F148" unicode="Y&#x20de;" 
d="M966 388h-131v273l-243 420h145l162 -297h5l162 297h142l-242 -418v-275zM416 1464h968c71.333 0 132.166 -24.833 182.499 -74.5s75.5 -109.5 75.5 -179.5v-976c0 -70 -25.167 -129.833 -75.5 -179.5s-111.166 -74.5 -182.499 -74.5h-968
c-71.333 0 -132.166 24.833 -182.499 74.5s-75.5 109.5 -75.5 179.5v976c0 70 25.167 129.833 75.5 179.5s111.166 74.5 182.499 74.5zM1513 1208c0 37.333 -14.167 69.667 -42.5 97s-61.833 41 -100.5 41h-940c-38.667 0 -72.167 -13.5 -100.5 -40.5
s-42.5 -59.5 -42.5 -97.5v-972c0 -37.333 14.167 -69.666 42.5 -96.999s61.833 -41 100.5 -41h940c38.667 0 72.167 13.667 100.5 41s42.5 59.666 42.5 96.999v972z" />
    <glyph glyph-name="uni1F149" unicode="Z&#x20de;" 
d="M635 388v83l361 499v7h-350v104h509v-83l-360 -499v-7h370v-104h-530zM416 1464h968c71.333 0 132.166 -24.833 182.499 -74.5s75.5 -109.5 75.5 -179.5v-976c0 -70 -25.167 -129.833 -75.5 -179.5s-111.166 -74.5 -182.499 -74.5h-968
c-71.333 0 -132.166 24.833 -182.499 74.5s-75.5 109.5 -75.5 179.5v976c0 70 25.167 129.833 75.5 179.5s111.166 74.5 182.499 74.5zM1513 1208c0 37.333 -14.167 69.667 -42.5 97s-61.833 41 -100.5 41h-940c-38.667 0 -72.167 -13.5 -100.5 -40.5
s-42.5 -59.5 -42.5 -97.5v-972c0 -37.333 14.167 -69.666 42.5 -96.999s61.833 -41 100.5 -41h940c38.667 0 72.167 13.667 100.5 41s42.5 59.666 42.5 96.999v972z" />
    <glyph glyph-name="uni1F150" unicode="A&#x20dd;&#x25cf;" 
d="M1001 690h-202l99 297h4zM698 374l67 202h270l67 -202h156l-273 766h-170l-273 -766h156zM900 -50c-104 0 -203.667 20.5 -299 61.5s-177.333 95.833 -246 164.5s-123.5 150.667 -164.5 246s-61.5 195 -61.5 299s20.5 203.667 61.5 299s95.833 177.333 164.5 246
s150.667 123.5 246 164.5s195 61.5 299 61.5s203.667 -20.5 299 -61.5s177.333 -95.833 246 -164.5s123.5 -150.667 164.5 -246s61.5 -195 61.5 -299s-20.5 -203.667 -61.5 -299s-95.833 -177.333 -164.5 -246s-150.667 -123.5 -246 -164.5s-195 -61.5 -299 -61.5z" />
    <glyph glyph-name="uni1F151" unicode="B&#x20dd;&#x25cf;" 
d="M629 354h323.001c86.667 0 155.5 19.667 206.5 59s76.5 92.333 76.5 159c0 50.667 -15 92.834 -45 126.501s-71.333 54.5 -124 62.5c40 12 71 32.667 93 62s33 64.666 33 105.999c0 58.667 -21.333 105.167 -64 139.5s-100.334 51.5 -173.001 51.5h-326v-766z
M780.001 1005l145 0.000976562c36 0 64.333 -8.83301 85 -26.5s31 -41.834 31 -72.501c0 -69.333 -52.667 -104 -158 -104h-103v203zM780.001 694.001l155 -0.00195312c45.333 0 80.5 -10.167 105.5 -30.5s37.5 -49.166 37.5 -86.499s-14.5 -64.666 -43.5 -81.999
s-74.833 -26 -137.5 -26h-117v225zM900.001 -50.001c-104 0 -203.667 20.5 -299 61.5s-177.333 95.833 -246 164.5s-123.5 150.667 -164.5 246s-61.5 195 -61.5 299s20.5 203.667 61.5 299s95.833 177.333 164.5 246s150.667 123.5 246 164.5s195 61.5 299 61.5
s203.667 -20.5 299 -61.5s177.333 -95.833 246 -164.5s123.5 -150.667 164.5 -246s61.5 -195 61.5 -299s-20.5 -203.667 -61.5 -299s-95.833 -177.333 -164.5 -246s-150.667 -123.5 -246 -164.5s-195 -61.5 -299 -61.5z" />
    <glyph glyph-name="uni1F152" unicode="C&#x20dd;&#x25cf;" 
d="M1075 593c-6 -34 -25.499 -62.832 -58.499 -86.499s-71.5 -35.5 -115.5 -35.5c-60.667 0 -109.5 24 -146.5 72s-55.5 111.667 -55.5 191s18.5 143.166 55.5 191.499s85.833 72.5 146.5 72.5c45.333 0 84.833 -12.833 118.5 -38.5s53.5 -56.834 59.5 -93.501h155
c-10 80 -45.167 144.167 -105.5 192.5s-136.833 72.5 -229.5 72.5c-106.667 0 -192.834 -36.667 -258.501 -110s-98.5 -169 -98.5 -287s32.833 -213.5 98.5 -286.5s151.834 -109.5 258.501 -109.5c89.333 0 164.166 23.333 224.499 70s96.5 108.334 108.5 185.001h-157z
M900.001 -49.999c-104 0 -203.667 20.5 -299 61.5s-177.333 95.833 -246 164.5s-123.5 150.667 -164.5 246s-61.5 195 -61.5 299s20.5 203.667 61.5 299s95.833 177.333 164.5 246s150.667 123.5 246 164.5s195 61.5 299 61.5s203.667 -20.5 299 -61.5
s177.333 -95.833 246 -164.5s123.5 -150.667 164.5 -246s61.5 -195 61.5 -299s-20.5 -203.667 -61.5 -299s-95.833 -177.333 -164.5 -246s-150.667 -123.5 -246 -164.5s-195 -61.5 -299 -61.5z" />
    <glyph glyph-name="uni1F153" unicode="D&#x20dd;&#x25cf;" 
d="M621 1120l-0.00195312 -765.999h285c116.667 0 205.334 32.667 266.001 98s91 160.666 91 285.999s-30.167 220.333 -90.5 285s-149.166 97 -266.499 97h-285zM772.998 997.001h115c74 0 129 -21.5 165 -64.5s54 -108.5 54 -196.5s-18 -153.167 -54 -195.5
s-91 -63.5 -165 -63.5h-115v520zM899.998 -49.999c-104 0 -203.667 20.5 -299 61.5s-177.333 95.833 -246 164.5s-123.5 150.667 -164.5 246s-61.5 195 -61.5 299s20.5 203.667 61.5 299s95.833 177.333 164.5 246s150.667 123.5 246 164.5s195 61.5 299 61.5
s203.667 -20.5 299 -61.5s177.333 -95.833 246 -164.5s123.5 -150.667 164.5 -246s61.5 -195 61.5 -299s-20.5 -203.667 -61.5 -299s-95.833 -177.333 -164.5 -246s-150.667 -123.5 -246 -164.5s-195 -61.5 -299 -61.5z" />
    <glyph glyph-name="uni1F154" unicode="E&#x20dd;&#x25cf;" 
d="M1159 477h-361v206h339v117h-339v197h361v123h-514v-766h514v123zM900 -50c-104 0 -203.667 20.5 -299 61.5s-177.333 95.833 -246 164.5s-123.5 150.667 -164.5 246s-61.5 195 -61.5 299s20.5 203.667 61.5 299s95.833 177.333 164.5 246s150.667 123.5 246 164.5
s195 61.5 299 61.5s203.667 -20.5 299 -61.5s177.333 -95.833 246 -164.5s123.5 -150.667 164.5 -246s61.5 -195 61.5 -299s-20.5 -203.667 -61.5 -299s-95.833 -177.333 -164.5 -246s-150.667 -123.5 -246 -164.5s-195 -61.5 -299 -61.5z" />
    <glyph glyph-name="uni1F155" unicode="F&#x20dd;&#x25cf;" 
d="M830 354v307h324v123h-324v212h353v124h-505v-766h152zM900 -50c-104 0 -203.667 20.5 -299 61.5s-177.333 95.833 -246 164.5s-123.5 150.667 -164.5 246s-61.5 195 -61.5 299s20.5 203.667 61.5 299s95.833 177.333 164.5 246s150.667 123.5 246 164.5
s195 61.5 299 61.5s203.667 -20.5 299 -61.5s177.333 -95.833 246 -164.5s123.5 -150.667 164.5 -246s61.5 -195 61.5 -299s-20.5 -203.667 -61.5 -299s-95.833 -177.333 -164.5 -246s-150.667 -123.5 -246 -164.5s-195 -61.5 -299 -61.5z" />
    <glyph glyph-name="uni1F156" unicode="G&#x20dd;&#x25cf;" 
d="M1077 620c0 -40 -15.3301 -73.667 -45.9971 -101s-73.334 -41 -128.001 -41c-62 0 -111.333 22.833 -148 68.5s-55 108.167 -55 187.5c0 80 18.333 142.833 55 188.5s86 68.5 148 68.5c48 0 87.833 -10 119.5 -30s49.5 -44.667 53.5 -74h157
c-10.667 72 -46.334 130.5 -107.001 175.5s-135.334 67.5 -224.001 67.5c-107.333 0 -194.333 -36.5 -261 -109.5s-100 -168.5 -100 -286.5s33 -213.333 99 -286s152.667 -109 260 -109c98.667 0 177.667 28.667 237 86s89 129 89 215v134h-312v-127h163v-27zM900.003 -50
c-104 0 -203.667 20.5 -299 61.5s-177.333 95.833 -246 164.5s-123.5 150.667 -164.5 246s-61.5 195 -61.5 299s20.5 203.667 61.5 299s95.833 177.333 164.5 246s150.667 123.5 246 164.5s195 61.5 299 61.5s203.667 -20.5 299 -61.5s177.333 -95.833 246 -164.5
s123.5 -150.667 164.5 -246s61.5 -195 61.5 -299s-20.5 -203.667 -61.5 -299s-95.833 -177.333 -164.5 -246s-150.667 -123.5 -246 -164.5s-195 -61.5 -299 -61.5z" />
    <glyph glyph-name="uni1F157" unicode="H&#x20dd;&#x25cf;" 
d="M1222 354v766h-151v-312h-341v312h-152v-766h152v330h341v-330h151zM900 -50c-104 0 -203.667 20.5 -299 61.5s-177.333 95.833 -246 164.5s-123.5 150.667 -164.5 246s-61.5 195 -61.5 299s20.5 203.667 61.5 299s95.833 177.333 164.5 246s150.667 123.5 246 164.5
s195 61.5 299 61.5s203.667 -20.5 299 -61.5s177.333 -95.833 246 -164.5s123.5 -150.667 164.5 -246s61.5 -195 61.5 -299s-20.5 -203.667 -61.5 -299s-95.833 -177.333 -164.5 -246s-150.667 -123.5 -246 -164.5s-195 -61.5 -299 -61.5z" />
    <glyph glyph-name="uni1F158" unicode="I&#x20dd;&#x25cf;" 
d="M976 354v766h-152v-766h152zM900 -50c-104 0 -203.667 20.5 -299 61.5s-177.333 95.833 -246 164.5s-123.5 150.667 -164.5 246s-61.5 195 -61.5 299s20.5 203.667 61.5 299s95.833 177.333 164.5 246s150.667 123.5 246 164.5s195 61.5 299 61.5
s203.667 -20.5 299 -61.5s177.333 -95.833 246 -164.5s123.5 -150.667 164.5 -246s61.5 -195 61.5 -299s-20.5 -203.667 -61.5 -299s-95.833 -177.333 -164.5 -246s-150.667 -123.5 -246 -164.5s-195 -61.5 -299 -61.5z" />
    <glyph glyph-name="uni1F159" unicode="J&#x20dd;&#x25cf;" 
d="M606 570c0 -69.333 23.1689 -125 69.502 -167s107.833 -63 184.5 -63c83.333 0 148 22.333 194 67s69 107.334 69 188.001v525h-153v-530c0 -79.333 -37.333 -119 -112 -119c-30.667 0 -55.334 9.16699 -74.001 27.5s-28.334 42.166 -29.001 71.499h-149zM900.002 -50
c-104 0 -203.667 20.5 -299 61.5s-177.333 95.833 -246 164.5s-123.5 150.667 -164.5 246s-61.5 195 -61.5 299s20.5 203.667 61.5 299s95.833 177.333 164.5 246s150.667 123.5 246 164.5s195 61.5 299 61.5s203.667 -20.5 299 -61.5s177.333 -95.833 246 -164.5
s123.5 -150.667 164.5 -246s61.5 -195 61.5 -299s-20.5 -203.667 -61.5 -299s-95.833 -177.333 -164.5 -246s-150.667 -123.5 -246 -164.5s-195 -61.5 -299 -61.5z" />
    <glyph glyph-name="uni1F15A" unicode="K&#x20dd;&#x25cf;" 
d="M1248 1120h-172l-311 -343v343h-152v-766h152v252l79 85l230 -337h185l-304 436zM900 -50c-104 0 -203.667 20.5 -299 61.5s-177.333 95.833 -246 164.5s-123.5 150.667 -164.5 246s-61.5 195 -61.5 299s20.5 203.667 61.5 299s95.833 177.333 164.5 246
s150.667 123.5 246 164.5s195 61.5 299 61.5s203.667 -20.5 299 -61.5s177.333 -95.833 246 -164.5s123.5 -150.667 164.5 -246s61.5 -195 61.5 -299s-20.5 -203.667 -61.5 -299s-95.833 -177.333 -164.5 -246s-150.667 -123.5 -246 -164.5s-195 -61.5 -299 -61.5z" />
    <glyph glyph-name="uni1F15B" unicode="L&#x20dd;&#x25cf;" 
d="M1190 481h-344v639h-153v-766h497v127zM900 -50c-104 0 -203.667 20.5 -299 61.5s-177.333 95.833 -246 164.5s-123.5 150.667 -164.5 246s-61.5 195 -61.5 299s20.5 203.667 61.5 299s95.833 177.333 164.5 246s150.667 123.5 246 164.5s195 61.5 299 61.5
s203.667 -20.5 299 -61.5s177.333 -95.833 246 -164.5s123.5 -150.667 164.5 -246s61.5 -195 61.5 -299s-20.5 -203.667 -61.5 -299s-95.833 -177.333 -164.5 -246s-150.667 -123.5 -246 -164.5s-195 -61.5 -299 -61.5z" />
    <glyph glyph-name="uni1F15C" unicode="M&#x20dd;&#x25cf;" 
d="M651 354v521l196 -495h106l195 491v-517h139v766h-152l-236 -582l-233 582h-153v-766h138zM900 -50c-104 0 -203.667 20.5 -299 61.5s-177.333 95.833 -246 164.5s-123.5 150.667 -164.5 246s-61.5 195 -61.5 299s20.5 203.667 61.5 299s95.833 177.333 164.5 246
s150.667 123.5 246 164.5s195 61.5 299 61.5s203.667 -20.5 299 -61.5s177.333 -95.833 246 -164.5s123.5 -150.667 164.5 -246s61.5 -195 61.5 -299s-20.5 -203.667 -61.5 -299s-95.833 -177.333 -164.5 -246s-150.667 -123.5 -246 -164.5s-195 -61.5 -299 -61.5z" />
    <glyph glyph-name="uni1F15D" unicode="N&#x20dd;&#x25cf;" 
d="M728 354v523l359 -523h131v766h-146v-524l-361 524h-129v-766h146zM900 -50c-104 0 -203.667 20.5 -299 61.5s-177.333 95.833 -246 164.5s-123.5 150.667 -164.5 246s-61.5 195 -61.5 299s20.5 203.667 61.5 299s95.833 177.333 164.5 246s150.667 123.5 246 164.5
s195 61.5 299 61.5s203.667 -20.5 299 -61.5s177.333 -95.833 246 -164.5s123.5 -150.667 164.5 -246s61.5 -195 61.5 -299s-20.5 -203.667 -61.5 -299s-95.833 -177.333 -164.5 -246s-150.667 -123.5 -246 -164.5s-195 -61.5 -299 -61.5z" />
    <glyph glyph-name="uni1F15E" unicode="O&#x20dd;&#x25cf;" 
d="M900 465c-59.333 0 -108.5 23.833 -147.5 71.5s-58.5 113.5 -58.5 197.5c0 84.667 19.5 150.834 58.5 198.501s88.167 71.5 147.5 71.5s108.5 -23.833 147.5 -71.5s58.5 -113.834 58.5 -198.501c0 -84 -19.5 -149.833 -58.5 -197.5s-88.167 -71.5 -147.5 -71.5zM900 338
c103.333 0 189.166 35.333 257.499 106s102.5 167.334 102.5 290.001c0 123.333 -34.167 220.333 -102.5 291s-154.166 106 -257.499 106s-189.166 -35.333 -257.499 -106s-102.5 -167.667 -102.5 -291c0 -122.667 34.167 -219.334 102.5 -290.001
s154.166 -106 257.499 -106zM900 -50c-104 0 -203.667 20.5 -299 61.5s-177.333 95.833 -246 164.5s-123.5 150.667 -164.5 246s-61.5 195 -61.5 299s20.5 203.667 61.5 299s95.833 177.333 164.5 246s150.667 123.5 246 164.5s195 61.5 299 61.5s203.667 -20.5 299 -61.5
s177.333 -95.833 246 -164.5s123.5 -150.667 164.5 -246s61.5 -195 61.5 -299s-20.5 -203.667 -61.5 -299s-95.833 -177.333 -164.5 -246s-150.667 -123.5 -246 -164.5s-195 -61.5 -299 -61.5z" />
    <glyph glyph-name="uni1F15F" unicode="P&#x20dd;&#x25cf;" 
d="M960 1120h-314v-766h152v263h161c81.333 0 147 22.833 197 68.5s75 106.167 75 181.5s-25 136.333 -75 183s-115.333 70 -196 70zM1075 867c0 -41.333 -12.168 -73.668 -36.501 -97.001s-58.166 -35 -101.499 -35h-139v264h139c44 0 78 -11.667 102 -35
s36 -55.666 36 -96.999zM899.999 -50.002c-104 0 -203.667 20.5 -299 61.5s-177.333 95.833 -246 164.5s-123.5 150.667 -164.5 246s-61.5 195 -61.5 299s20.5 203.667 61.5 299s95.833 177.333 164.5 246s150.667 123.5 246 164.5s195 61.5 299 61.5
s203.667 -20.5 299 -61.5s177.333 -95.833 246 -164.5s123.5 -150.667 164.5 -246s61.5 -195 61.5 -299s-20.5 -203.667 -61.5 -299s-95.833 -177.333 -164.5 -246s-150.667 -123.5 -246 -164.5s-195 -61.5 -299 -61.5z" />
    <glyph glyph-name="uni1F160" unicode="Q&#x20dd;&#x25cf;" 
d="M1240 280l-106.001 142.001c84 73.333 126 177.333 126 312c0 123.333 -34.167 220.333 -102.5 291s-154.166 106 -257.499 106s-189.166 -35.333 -257.499 -106s-102.5 -167.667 -102.5 -291c0 -122.667 34.167 -219.334 102.5 -290.001s154.166 -106 257.499 -106
c44 0 85.667 7 125 21l57 -79h158zM899.999 465.001c-59.333 0 -108.5 23.833 -147.5 71.5s-58.5 113.5 -58.5 197.5c0 84.667 19.5 150.834 58.5 198.501s88.167 71.5 147.5 71.5s108.5 -23.833 147.5 -71.5s58.5 -113.834 58.5 -198.501c0 -82.667 -19.333 -148 -58 -196
l-46 62h-152l94 -130c-15.333 -3.33301 -30 -5 -44 -5zM899.999 -49.999c-104 0 -203.667 20.5 -299 61.5s-177.333 95.833 -246 164.5s-123.5 150.667 -164.5 246s-61.5 195 -61.5 299s20.5 203.667 61.5 299s95.833 177.333 164.5 246s150.667 123.5 246 164.5
s195 61.5 299 61.5s203.667 -20.5 299 -61.5s177.333 -95.833 246 -164.5s123.5 -150.667 164.5 -246s61.5 -195 61.5 -299s-20.5 -203.667 -61.5 -299s-95.833 -177.333 -164.5 -246s-150.667 -123.5 -246 -164.5s-195 -61.5 -299 -61.5z" />
    <glyph glyph-name="uni1F161" unicode="R&#x20dd;&#x25cf;" 
d="M768 755v245h143c44 0 78.5 -11 103.5 -33s37.5 -52.667 37.5 -92c0 -38 -12.5 -67.5 -37.5 -88.5s-60.5 -31.5 -106.5 -31.5h-140zM931 1120h-313v-766h150v287h147l139 -287h173l-161 310c43.333 16 77.833 43.333 103.5 82s38.5 83 38.5 133
c0 74.667 -24.833 133.5 -74.5 176.5s-117.167 64.5 -202.5 64.5zM900 -50c-104 0 -203.667 20.5 -299 61.5s-177.333 95.833 -246 164.5s-123.5 150.667 -164.5 246s-61.5 195 -61.5 299s20.5 203.667 61.5 299s95.833 177.333 164.5 246s150.667 123.5 246 164.5
s195 61.5 299 61.5s203.667 -20.5 299 -61.5s177.333 -95.833 246 -164.5s123.5 -150.667 164.5 -246s61.5 -195 61.5 -299s-20.5 -203.667 -61.5 -299s-95.833 -177.333 -164.5 -246s-150.667 -123.5 -246 -164.5s-195 -61.5 -299 -61.5z" />
    <glyph glyph-name="uni1F162" unicode="S&#x20dd;&#x25cf;" 
d="M589 576c2 -72.667 30.668 -130.333 86.001 -173s129.333 -64 222 -64c96.667 0 173.167 21.333 229.5 64s84.5 100.667 84.5 174c0 58 -17.5 104.5 -52.5 139.5s-89.5 61.167 -163.5 78.5l-127 28c-70 15.333 -105 45.333 -105 90c0 31.333 12.833 56.5 38.5 75.5
s59.834 28.5 102.501 28.5s77.667 -10.333 105 -31s42.666 -48 45.999 -82h145c-0.666992 68.667 -28.334 124.5 -83.001 167.5s-125.334 64.5 -212.001 64.5c-87.333 0 -158.333 -21.333 -213 -64s-82 -98.334 -82 -167.001c0 -54 17.167 -99 51.5 -135
s83.833 -61.333 148.5 -76l127 -30c42.667 -9.33301 73.667 -21.666 93 -36.999s29 -35.666 29 -60.999c0 -33.333 -13.833 -59.5 -41.5 -78.5s-65.167 -28.5 -112.5 -28.5s-86.166 10.667 -116.499 32s-46.833 49.666 -49.5 84.999h-150zM900.001 -49.999
c-104 0 -203.667 20.5 -299 61.5s-177.333 95.833 -246 164.5s-123.5 150.667 -164.5 246s-61.5 195 -61.5 299s20.5 203.667 61.5 299s95.833 177.333 164.5 246s150.667 123.5 246 164.5s195 61.5 299 61.5s203.667 -20.5 299 -61.5s177.333 -95.833 246 -164.5
s123.5 -150.667 164.5 -246s61.5 -195 61.5 -299s-20.5 -203.667 -61.5 -299s-95.833 -177.333 -164.5 -246s-150.667 -123.5 -246 -164.5s-195 -61.5 -299 -61.5z" />
    <glyph glyph-name="uni1F163" unicode="T&#x20dd;&#x25cf;" 
d="M976 334v641h229v125h-610v-125h229v-641h152zM900 -50c-104 0 -203.667 20.5 -299 61.5s-177.333 95.833 -246 164.5s-123.5 150.667 -164.5 246s-61.5 195 -61.5 299s20.5 203.667 61.5 299s95.833 177.333 164.5 246s150.667 123.5 246 164.5s195 61.5 299 61.5
s203.667 -20.5 299 -61.5s177.333 -95.833 246 -164.5s123.5 -150.667 164.5 -246s61.5 -195 61.5 -299s-20.5 -203.667 -61.5 -299s-95.833 -177.333 -164.5 -246s-150.667 -123.5 -246 -164.5s-195 -61.5 -299 -61.5z" />
    <glyph glyph-name="uni1F164" unicode="U&#x20dd;&#x25cf;" 
d="M900 448c-52.667 0 -93.667 14.5 -123 43.5s-44 69.167 -44 120.5v488h-153v-500c0 -84.667 29.167 -152.5 87.5 -203.5s135.833 -76.5 232.5 -76.5s174.167 25.667 232.5 77s87.5 119 87.5 203v500h-153v-488c0 -51.333 -14.833 -91.5 -44.5 -120.5
s-70.5 -43.5 -122.5 -43.5zM900 -50c-104 0 -203.667 20.5 -299 61.5s-177.333 95.833 -246 164.5s-123.5 150.667 -164.5 246s-61.5 195 -61.5 299s20.5 203.667 61.5 299s95.833 177.333 164.5 246s150.667 123.5 246 164.5s195 61.5 299 61.5s203.667 -20.5 299 -61.5
s177.333 -95.833 246 -164.5s123.5 -150.667 164.5 -246s61.5 -195 61.5 -299s-20.5 -203.667 -61.5 -299s-95.833 -177.333 -164.5 -246s-150.667 -123.5 -246 -164.5s-195 -61.5 -299 -61.5z" />
    <glyph glyph-name="uni1F165" unicode="V&#x20dd;&#x25cf;" 
d="M986 334l277 766h-175l-186 -608h-4l-186 608h-175l277 -766h172zM900 -50c-104 0 -203.667 20.5 -299 61.5s-177.333 95.833 -246 164.5s-123.5 150.667 -164.5 246s-61.5 195 -61.5 299s20.5 203.667 61.5 299s95.833 177.333 164.5 246s150.667 123.5 246 164.5
s195 61.5 299 61.5s203.667 -20.5 299 -61.5s177.333 -95.833 246 -164.5s123.5 -150.667 164.5 -246s61.5 -195 61.5 -299s-20.5 -203.667 -61.5 -299s-95.833 -177.333 -164.5 -246s-150.667 -123.5 -246 -164.5s-195 -61.5 -299 -61.5z" />
    <glyph glyph-name="uni1F166" unicode="W&#x20dd;&#x25cf;" 
d="M898 875h4l151 -541h139l216 766h-168l-122 -566h-4l-145 566h-138l-145 -566h-4l-122 566h-168l217 -766h138zM900 -50c-104 0 -203.667 20.5 -299 61.5s-177.333 95.833 -246 164.5s-123.5 150.667 -164.5 246s-61.5 195 -61.5 299s20.5 203.667 61.5 299
s95.833 177.333 164.5 246s150.667 123.5 246 164.5s195 61.5 299 61.5s203.667 -20.5 299 -61.5s177.333 -95.833 246 -164.5s123.5 -150.667 164.5 -246s61.5 -195 61.5 -299s-20.5 -203.667 -61.5 -299s-95.833 -177.333 -164.5 -246s-150.667 -123.5 -246 -164.5
s-195 -61.5 -299 -61.5z" />
    <glyph glyph-name="uni1F167" unicode="X&#x20dd;&#x25cf;" 
d="M1252 1120h-174l-168 -279h-4l-173 279h-182l250 -380l-253 -386h170l175 275h3l175 -275h177l-254 381zM900 -50c-104 0 -203.667 20.5 -299 61.5s-177.333 95.833 -246 164.5s-123.5 150.667 -164.5 246s-61.5 195 -61.5 299s20.5 203.667 61.5 299
s95.833 177.333 164.5 246s150.667 123.5 246 164.5s195 61.5 299 61.5s203.667 -20.5 299 -61.5s177.333 -95.833 246 -164.5s123.5 -150.667 164.5 -246s61.5 -195 61.5 -299s-20.5 -203.667 -61.5 -299s-95.833 -177.333 -164.5 -246s-150.667 -123.5 -246 -164.5
s-195 -61.5 -299 -61.5z" />
    <glyph glyph-name="uni1F168" unicode="Y&#x20dd;&#x25cf;" 
d="M824 349h152v302l271 464h-169l-176 -324h-4l-176 324h-169l271 -464v-302zM900 -50c-104 0 -203.667 20.5 -299 61.5s-177.333 95.833 -246 164.5s-123.5 150.667 -164.5 246s-61.5 195 -61.5 299s20.5 203.667 61.5 299s95.833 177.333 164.5 246
s150.667 123.5 246 164.5s195 61.5 299 61.5s203.667 -20.5 299 -61.5s177.333 -95.833 246 -164.5s123.5 -150.667 164.5 -246s61.5 -195 61.5 -299s-20.5 -203.667 -61.5 -299s-95.833 -177.333 -164.5 -246s-150.667 -123.5 -246 -164.5s-195 -61.5 -299 -61.5z" />
    <glyph glyph-name="uni1F169" unicode="Z&#x20dd;&#x25cf;" 
d="M605 354h590v124h-405l394 545v97h-567v-124h383v-1l-395 -544v-97zM900 -50c-104 0 -203.667 20.5 -299 61.5s-177.333 95.833 -246 164.5s-123.5 150.667 -164.5 246s-61.5 195 -61.5 299s20.5 203.667 61.5 299s95.833 177.333 164.5 246s150.667 123.5 246 164.5
s195 61.5 299 61.5s203.667 -20.5 299 -61.5s177.333 -95.833 246 -164.5s123.5 -150.667 164.5 -246s61.5 -195 61.5 -299s-20.5 -203.667 -61.5 -299s-95.833 -177.333 -164.5 -246s-150.667 -123.5 -246 -164.5s-195 -61.5 -299 -61.5z" />
    <glyph glyph-name="uni1F170" unicode="A&#x20de;&#x25a0;" 
d="M1001 670h-202l99 297h4zM698 354l67 202h270l67 -202h156l-273 766h-170l-273 -766h156zM416 1464h968c71.333 0 132.166 -24.833 182.499 -74.5s75.5 -109.5 75.5 -179.5v-976c0 -70 -25.167 -129.833 -75.5 -179.5s-111.166 -74.5 -182.499 -74.5h-968
c-71.333 0 -132.166 24.833 -182.499 74.5s-75.5 109.5 -75.5 179.5v976c0 70 25.167 129.833 75.5 179.5s111.166 74.5 182.499 74.5z" />
    <glyph glyph-name="uni1F171" unicode="B&#x20de;&#x25a0;" 
d="M629 354l322.999 -0.000976562c84.667 0 153 19.333 205 58s78 92 78 160c0 52.667 -15.667 95.334 -47 128.001s-72 53 -122 61c38.667 11.333 69.334 31.333 92.001 60s34 64.667 34 108c0 59.333 -21.5 106 -64.5 140s-100.5 51 -172.5 51h-326v-766zM779.999 1005
h145c36 0 64.333 -9 85 -27s31 -42 31 -72c0 -69.333 -52.667 -104 -158 -104h-103v203zM779.999 693.999l155 0.00195312c46 0 81.333 -10.333 106 -31s37 -49.334 37 -86.001s-14.333 -63.834 -43 -81.501s-74.667 -26.5 -138 -26.5h-117v225zM415.999 1464h968
c71.333 0 132.166 -24.833 182.499 -74.5s75.5 -109.5 75.5 -179.5v-976c0 -70 -25.167 -129.833 -75.5 -179.5s-111.166 -74.5 -182.499 -74.5h-968c-71.333 0 -132.166 24.833 -182.499 74.5s-75.5 109.5 -75.5 179.5v976c0 70 25.167 129.833 75.5 179.5
s111.166 74.5 182.499 74.5z" />
    <glyph glyph-name="uni1F172" unicode="C&#x20de;&#x25a0;" 
d="M1075 593c-6 -34 -25.499 -62.832 -58.499 -86.499s-71.5 -35.5 -115.5 -35.5c-60.667 0 -109.5 24 -146.5 72s-55.5 111.667 -55.5 191s18.5 143.166 55.5 191.499s85.833 72.5 146.5 72.5c45.333 0 84.833 -12.833 118.5 -38.5s53.5 -56.834 59.5 -93.501h155
c-10 80 -45.167 144.167 -105.5 192.5s-136.833 72.5 -229.5 72.5c-106.667 0 -192.834 -36.667 -258.501 -110s-98.5 -169 -98.5 -287s32.833 -213.5 98.5 -286.5s151.834 -109.5 258.501 -109.5c89.333 0 164.166 23.333 224.499 70s96.5 108.334 108.5 185.001h-157z
M416.001 1464h968c71.333 0 132.166 -24.833 182.499 -74.5s75.5 -109.5 75.5 -179.5v-976c0 -70 -25.167 -129.833 -75.5 -179.5s-111.166 -74.5 -182.499 -74.5h-968c-71.333 0 -132.166 24.833 -182.499 74.5s-75.5 109.5 -75.5 179.5v976
c0 70 25.167 129.833 75.5 179.5s111.166 74.5 182.499 74.5z" />
    <glyph glyph-name="uni1F173" unicode="D&#x20de;&#x25a0;" 
d="M598 1120v-766h285c118.667 0 207.834 33 267.501 99s89.5 161 89.5 285s-29.833 218.667 -89.5 284s-148.834 98 -267.501 98h-285zM750 997l115 -0.000976562c74.667 0 129.834 -21.667 165.501 -65s53.5 -108.666 53.5 -195.999s-17.833 -152.333 -53.5 -195
s-90.834 -64 -165.501 -64h-115v520zM416 1464h968c71.333 0 132.166 -24.833 182.499 -74.5s75.5 -109.5 75.5 -179.5v-976c0 -70 -25.167 -129.833 -75.5 -179.5s-111.166 -74.5 -182.499 -74.5h-968c-71.333 0 -132.166 24.833 -182.499 74.5s-75.5 109.5 -75.5 179.5
v976c0 70 25.167 129.833 75.5 179.5s111.166 74.5 182.499 74.5z" />
    <glyph glyph-name="uni1F174" unicode="E&#x20de;&#x25a0;" 
d="M1159 477h-361v206h339v117h-339v197h361v123h-514v-766h514v123zM416 1464h968c71.333 0 132.166 -24.833 182.499 -74.5s75.5 -109.5 75.5 -179.5v-976c0 -70 -25.167 -129.833 -75.5 -179.5s-111.166 -74.5 -182.499 -74.5h-968
c-71.333 0 -132.166 24.833 -182.499 74.5s-75.5 109.5 -75.5 179.5v976c0 70 25.167 129.833 75.5 179.5s111.166 74.5 182.499 74.5z" />
    <glyph glyph-name="uni1F175" unicode="F&#x20de;&#x25a0;" 
d="M830 354v307h324v123h-324v212h353v124h-505v-766h152zM416 1464h968c71.333 0 132.166 -24.833 182.499 -74.5s75.5 -109.5 75.5 -179.5v-976c0 -70 -25.167 -129.833 -75.5 -179.5s-111.166 -74.5 -182.499 -74.5h-968c-71.333 0 -132.166 24.833 -182.499 74.5
s-75.5 109.5 -75.5 179.5v976c0 70 25.167 129.833 75.5 179.5s111.166 74.5 182.499 74.5z" />
    <glyph glyph-name="uni1F176" unicode="G&#x20de;&#x25a0;" 
d="M1077 620c0 -40 -15.3301 -73.667 -45.9971 -101s-73.334 -41 -128.001 -41c-62 0 -111.333 22.833 -148 68.5s-55 108.167 -55 187.5c0 80 18.333 142.833 55 188.5s86 68.5 148 68.5c48 0 87.833 -10 119.5 -30s49.5 -44.667 53.5 -74h157
c-10.667 72 -46.334 130.5 -107.001 175.5s-135.334 67.5 -224.001 67.5c-107.333 0 -194.333 -36.5 -261 -109.5s-100 -168.5 -100 -286.5s33 -213.333 99 -286s152.667 -109 260 -109c98.667 0 177.667 28.667 237 86s89 129 89 215v134h-312v-127h163v-27zM416.003 1464
h968c71.333 0 132.166 -24.833 182.499 -74.5s75.5 -109.5 75.5 -179.5v-976c0 -70 -25.167 -129.833 -75.5 -179.5s-111.166 -74.5 -182.499 -74.5h-968c-71.333 0 -132.166 24.833 -182.499 74.5s-75.5 109.5 -75.5 179.5v976c0 70 25.167 129.833 75.5 179.5
s111.166 74.5 182.499 74.5z" />
    <glyph glyph-name="uni1F177" unicode="H&#x20de;&#x25a0;" 
d="M1222 354v766h-151v-312h-341v312h-152v-766h152v330h341v-330h151zM416 1464h968c71.333 0 132.166 -24.833 182.499 -74.5s75.5 -109.5 75.5 -179.5v-976c0 -70 -25.167 -129.833 -75.5 -179.5s-111.166 -74.5 -182.499 -74.5h-968
c-71.333 0 -132.166 24.833 -182.499 74.5s-75.5 109.5 -75.5 179.5v976c0 70 25.167 129.833 75.5 179.5s111.166 74.5 182.499 74.5z" />
    <glyph glyph-name="uni1F178" unicode="I&#x20de;&#x25a0;" 
d="M976 354v766h-152v-766h152zM416 1464h968c71.333 0 132.166 -24.833 182.499 -74.5s75.5 -109.5 75.5 -179.5v-976c0 -70 -25.167 -129.833 -75.5 -179.5s-111.166 -74.5 -182.499 -74.5h-968c-71.333 0 -132.166 24.833 -182.499 74.5s-75.5 109.5 -75.5 179.5v976
c0 70 25.167 129.833 75.5 179.5s111.166 74.5 182.499 74.5z" />
    <glyph glyph-name="uni1F179" unicode="J&#x20de;&#x25a0;" 
d="M606 570c0 -66.667 22.335 -121.666 67.002 -164.999s107 -65 187 -65c82.667 0 147.167 22 193.5 66s69.5 107 69.5 189v525h-153v-530c0 -79.333 -37.333 -119 -112 -119c-30.667 0 -55.334 9.16699 -74.001 27.5s-28.334 42.166 -29.001 71.499h-149zM416.002 1464
h968c71.333 0 132.166 -24.833 182.499 -74.5s75.5 -109.5 75.5 -179.5v-976c0 -70 -25.167 -129.833 -75.5 -179.5s-111.166 -74.5 -182.499 -74.5h-968c-71.333 0 -132.166 24.833 -182.499 74.5s-75.5 109.5 -75.5 179.5v976c0 70 25.167 129.833 75.5 179.5
s111.166 74.5 182.499 74.5z" />
    <glyph glyph-name="uni1F17A" unicode="K&#x20de;&#x25a0;" 
d="M1248 1120h-172l-311 -343v343h-152v-766h152v252l79 85l230 -337h185l-304 436zM416 1464h968c71.333 0 132.166 -24.833 182.499 -74.5s75.5 -109.5 75.5 -179.5v-976c0 -70 -25.167 -129.833 -75.5 -179.5s-111.166 -74.5 -182.499 -74.5h-968
c-71.333 0 -132.166 24.833 -182.499 74.5s-75.5 109.5 -75.5 179.5v976c0 70 25.167 129.833 75.5 179.5s111.166 74.5 182.499 74.5z" />
    <glyph glyph-name="uni1F17B" unicode="L&#x20de;&#x25a0;" 
d="M1200 481h-344v639h-153v-766h497v127zM416 1464h968c71.333 0 132.166 -24.833 182.499 -74.5s75.5 -109.5 75.5 -179.5v-976c0 -70 -25.167 -129.833 -75.5 -179.5s-111.166 -74.5 -182.499 -74.5h-968c-71.333 0 -132.166 24.833 -182.499 74.5
s-75.5 109.5 -75.5 179.5v976c0 70 25.167 129.833 75.5 179.5s111.166 74.5 182.499 74.5z" />
    <glyph glyph-name="uni1F17C" unicode="M&#x20de;&#x25a0;" 
d="M651 354v521l196 -495h106l195 491v-517h139v766h-152l-236 -582l-233 582h-153v-766h138zM416 1464h968c71.333 0 132.166 -24.833 182.499 -74.5s75.5 -109.5 75.5 -179.5v-976c0 -70 -25.167 -129.833 -75.5 -179.5s-111.166 -74.5 -182.499 -74.5h-968
c-71.333 0 -132.166 24.833 -182.499 74.5s-75.5 109.5 -75.5 179.5v976c0 70 25.167 129.833 75.5 179.5s111.166 74.5 182.499 74.5z" />
    <glyph glyph-name="uni1F17D" unicode="N&#x20de;&#x25a0;" 
d="M728 354v523l359 -523h131v766h-146v-524l-361 524h-129v-766h146zM416 1464h968c71.333 0 132.166 -24.833 182.499 -74.5s75.5 -109.5 75.5 -179.5v-976c0 -70 -25.167 -129.833 -75.5 -179.5s-111.166 -74.5 -182.499 -74.5h-968
c-71.333 0 -132.166 24.833 -182.499 74.5s-75.5 109.5 -75.5 179.5v976c0 70 25.167 129.833 75.5 179.5s111.166 74.5 182.499 74.5z" />
    <glyph glyph-name="uni1F17E" unicode="O&#x20de;&#x25a0;" 
d="M900 465c-59.333 0 -108.5 23.833 -147.5 71.5s-58.5 113.5 -58.5 197.5c0 84.667 19.5 150.834 58.5 198.501s88.167 71.5 147.5 71.5s108.5 -23.833 147.5 -71.5s58.5 -113.834 58.5 -198.501c0 -84 -19.5 -149.833 -58.5 -197.5s-88.167 -71.5 -147.5 -71.5zM900 338
c103.333 0 189.166 35.333 257.499 106s102.5 167.334 102.5 290.001c0 123.333 -34.167 220.333 -102.5 291s-154.166 106 -257.499 106s-189.166 -35.333 -257.499 -106s-102.5 -167.667 -102.5 -291c0 -122.667 34.167 -219.334 102.5 -290.001
s154.166 -106 257.499 -106zM416 1464h968c71.333 0 132.166 -24.833 182.499 -74.5s75.5 -109.5 75.5 -179.5v-976c0 -70 -25.167 -129.833 -75.5 -179.5s-111.166 -74.5 -182.499 -74.5h-968c-71.333 0 -132.166 24.833 -182.499 74.5s-75.5 109.5 -75.5 179.5v976
c0 70 25.167 129.833 75.5 179.5s111.166 74.5 182.499 74.5z" />
    <glyph glyph-name="uni1F17F" unicode="P&#x20de;&#x25a0;" 
d="M960 1120h-314v-766h152v263h161c83.333 0 149.5 23.333 198.5 70s73.5 106.667 73.5 180c0 74 -24.333 134.667 -73 182s-114.667 71 -198 71zM1075 867c0 -41.333 -12.168 -73.667 -36.501 -97s-58.166 -35 -101.499 -35h-139v264h139c44 0 78 -11.5 102 -34.5
s36 -55.5 36 -97.5zM415.999 1464h968c71.333 0 132.166 -24.833 182.499 -74.5s75.5 -109.5 75.5 -179.5v-976c0 -70 -25.167 -129.833 -75.5 -179.5s-111.166 -74.5 -182.499 -74.5h-968c-71.333 0 -132.166 24.833 -182.499 74.5s-75.5 109.5 -75.5 179.5v976
c0 70 25.167 129.833 75.5 179.5s111.166 74.5 182.499 74.5z" />
    <glyph glyph-name="uni1F180" unicode="Q&#x20de;&#x25a0;" 
d="M1240 280l-106.001 142.001c84 73.333 126 177.333 126 312c0 123.333 -34.167 220.333 -102.5 291s-154.166 106 -257.499 106s-189.166 -35.333 -257.499 -106s-102.5 -167.667 -102.5 -291c0 -122.667 34.167 -219.334 102.5 -290.001s154.166 -106 257.499 -106
c44 0 85.667 7 125 21l57 -79h158zM899.999 465.001c-59.333 0 -108.5 23.833 -147.5 71.5s-58.5 113.5 -58.5 197.5c0 84.667 19.5 150.834 58.5 198.501s88.167 71.5 147.5 71.5s108.5 -23.833 147.5 -71.5s58.5 -113.834 58.5 -198.501c0 -82.667 -19.333 -148 -58 -196
l-46 62h-152l94 -130c-15.333 -3.33301 -30 -5 -44 -5zM415.999 1464h968c71.333 0 132.166 -24.833 182.499 -74.5s75.5 -109.5 75.5 -179.5v-976c0 -70 -25.167 -129.833 -75.5 -179.5s-111.166 -74.5 -182.499 -74.5h-968c-71.333 0 -132.166 24.833 -182.499 74.5
s-75.5 109.5 -75.5 179.5v976c0 70 25.167 129.833 75.5 179.5s111.166 74.5 182.499 74.5z" />
    <glyph glyph-name="uni1F181" unicode="R&#x20de;&#x25a0;" 
d="M768 755v245.001h143c43.333 0 77.666 -10.833 102.999 -32.5s38 -52.5 38 -92.5c0 -38.667 -12.667 -68.334 -38 -89.001s-60.666 -31 -105.999 -31h-140zM931 1120l-313 -0.000976562v-766h150v287h147l139 -287h173l-161 310c41.333 15.333 75.333 41.833 102 79.5
s40 82.834 40 135.501c0 74 -24.5 132.667 -73.5 176s-116.833 65 -203.5 65zM416 1464h968c71.333 0 132.166 -24.833 182.499 -74.5s75.5 -109.5 75.5 -179.5v-976c0 -70 -25.167 -129.833 -75.5 -179.5s-111.166 -74.5 -182.499 -74.5h-968
c-71.333 0 -132.166 24.833 -182.499 74.5s-75.5 109.5 -75.5 179.5v976c0 70 25.167 129.833 75.5 179.5s111.166 74.5 182.499 74.5z" />
    <glyph glyph-name="uni1F182" unicode="S&#x20de;&#x25a0;" 
d="M589 576c2 -72.667 30.668 -130.333 86.001 -173s129.333 -64 222 -64c96.667 0 173.167 21.333 229.5 64s84.5 100.667 84.5 174c0 58 -17.5 104.5 -52.5 139.5s-89.5 61.167 -163.5 78.5l-127 28c-70 15.333 -105 45.333 -105 90c0 31.333 12.833 56.5 38.5 75.5
s59.834 28.5 102.501 28.5s77.667 -10.333 105 -31s42.666 -48 45.999 -82h145c-0.666992 68.667 -28.334 124.5 -83.001 167.5s-125.334 64.5 -212.001 64.5c-87.333 0 -158.333 -21.333 -213 -64s-82 -98.334 -82 -167.001c0 -54 17.167 -99 51.5 -135
s83.833 -61.333 148.5 -76l127 -30c42.667 -9.33301 73.667 -21.666 93 -36.999s29 -35.666 29 -60.999c0 -33.333 -13.833 -59.5 -41.5 -78.5s-65.167 -28.5 -112.5 -28.5s-86.166 10.667 -116.499 32s-46.833 49.666 -49.5 84.999h-150zM416.001 1464h968
c71.333 0 132.166 -24.833 182.499 -74.5s75.5 -109.5 75.5 -179.5v-976c0 -70 -25.167 -129.833 -75.5 -179.5s-111.166 -74.5 -182.499 -74.5h-968c-71.333 0 -132.166 24.833 -182.499 74.5s-75.5 109.5 -75.5 179.5v976c0 70 25.167 129.833 75.5 179.5
s111.166 74.5 182.499 74.5z" />
    <glyph glyph-name="uni1F183" unicode="T&#x20de;&#x25a0;" 
d="M976 354v641h229v125h-610v-125h229v-641h152zM416 1464h968c71.333 0 132.166 -24.833 182.499 -74.5s75.5 -109.5 75.5 -179.5v-976c0 -70 -25.167 -129.833 -75.5 -179.5s-111.166 -74.5 -182.499 -74.5h-968c-71.333 0 -132.166 24.833 -182.499 74.5
s-75.5 109.5 -75.5 179.5v976c0 70 25.167 129.833 75.5 179.5s111.166 74.5 182.499 74.5z" />
    <glyph glyph-name="uni1F184" unicode="U&#x20de;&#x25a0;" 
d="M900 468c-52.667 0 -93.667 14.5 -123 43.5s-44 69.167 -44 120.5v488h-153v-500c0 -84.667 29.167 -152.5 87.5 -203.5s135.833 -76.5 232.5 -76.5s174.167 25.667 232.5 77s87.5 119 87.5 203v500h-153v-488c0 -51.333 -14.833 -91.5 -44.5 -120.5
s-70.5 -43.5 -122.5 -43.5zM416 1464h968c71.333 0 132.166 -24.833 182.499 -74.5s75.5 -109.5 75.5 -179.5v-976c0 -70 -25.167 -129.833 -75.5 -179.5s-111.166 -74.5 -182.499 -74.5h-968c-71.333 0 -132.166 24.833 -182.499 74.5s-75.5 109.5 -75.5 179.5v976
c0 70 25.167 129.833 75.5 179.5s111.166 74.5 182.499 74.5z" />
    <glyph glyph-name="uni1F185" unicode="V&#x20de;&#x25a0;" 
d="M986 354l277 766h-175l-186 -608h-4l-186 608h-175l277 -766h172zM416 1464h968c71.333 0 132.166 -24.833 182.499 -74.5s75.5 -109.5 75.5 -179.5v-976c0 -70 -25.167 -129.833 -75.5 -179.5s-111.166 -74.5 -182.499 -74.5h-968
c-71.333 0 -132.166 24.833 -182.499 74.5s-75.5 109.5 -75.5 179.5v976c0 70 25.167 129.833 75.5 179.5s111.166 74.5 182.499 74.5z" />
    <glyph glyph-name="uni1F186" unicode="W&#x20de;&#x25a0;" 
d="M898 895h4l151 -541h139l216 766h-168l-122 -566h-4l-145 566h-138l-145 -566h-4l-122 566h-168l217 -766h138zM416 1464h968c71.333 0 132.166 -24.833 182.499 -74.5s75.5 -109.5 75.5 -179.5v-976c0 -70 -25.167 -129.833 -75.5 -179.5s-111.166 -74.5 -182.499 -74.5
h-968c-71.333 0 -132.166 24.833 -182.499 74.5s-75.5 109.5 -75.5 179.5v976c0 70 25.167 129.833 75.5 179.5s111.166 74.5 182.499 74.5z" />
    <glyph glyph-name="uni1F187" unicode="X&#x20de;&#x25a0;" 
d="M1252 1120h-174l-168 -279h-4l-173 279h-182l250 -380l-253 -386h170l175 275h3l175 -275h177l-254 381zM416 1464h968c71.333 0 132.166 -24.833 182.499 -74.5s75.5 -109.5 75.5 -179.5v-976c0 -70 -25.167 -129.833 -75.5 -179.5s-111.166 -74.5 -182.499 -74.5h-968
c-71.333 0 -132.166 24.833 -182.499 74.5s-75.5 109.5 -75.5 179.5v976c0 70 25.167 129.833 75.5 179.5s111.166 74.5 182.499 74.5z" />
    <glyph glyph-name="uni1F188" unicode="Y&#x20de;&#x25a0;" 
d="M824 354h152v302l271 464h-169l-176 -324h-4l-176 324h-169l271 -464v-302zM416 1464h968c71.333 0 132.166 -24.833 182.499 -74.5s75.5 -109.5 75.5 -179.5v-976c0 -70 -25.167 -129.833 -75.5 -179.5s-111.166 -74.5 -182.499 -74.5h-968
c-71.333 0 -132.166 24.833 -182.499 74.5s-75.5 109.5 -75.5 179.5v976c0 70 25.167 129.833 75.5 179.5s111.166 74.5 182.499 74.5z" />
    <glyph glyph-name="uni1F189" unicode="Z&#x20de;&#x25a0;" 
d="M605 354h590v124h-405l394 545v97h-567v-124h383v-1l-395 -544v-97zM416 1464h968c71.333 0 132.166 -24.833 182.499 -74.5s75.5 -109.5 75.5 -179.5v-976c0 -70 -25.167 -129.833 -75.5 -179.5s-111.166 -74.5 -182.499 -74.5h-968
c-71.333 0 -132.166 24.833 -182.499 74.5s-75.5 109.5 -75.5 179.5v976c0 70 25.167 129.833 75.5 179.5s111.166 74.5 182.499 74.5z" />
    <glyph glyph-name="plus.uc.whitecircle" unicode="&#x2b;&#x20dd;" 
d="M954 682v-217h-108v217h-212v102h212v209h108v-209h212v-102h-212zM900 78c117.333 0 224.666 28.667 321.999 86s173.833 135.166 229.5 233.499s83.5 205.833 83.5 322.5s-27.833 224.167 -83.5 322.5s-132.167 176.166 -229.5 233.499s-204.666 86 -321.999 86
s-224.666 -28.667 -321.999 -86s-173.833 -135.166 -229.5 -233.499s-83.5 -205.833 -83.5 -322.5s27.833 -224.167 83.5 -322.5s132.167 -176.166 229.5 -233.499s204.666 -86 321.999 -86zM900 -50c-104 0 -203.667 20.5 -299 61.5s-177.333 95.833 -246 164.5
s-123.5 150.667 -164.5 246s-61.5 195 -61.5 299s20.5 203.667 61.5 299s95.833 177.333 164.5 246s150.667 123.5 246 164.5s195 61.5 299 61.5s203.667 -20.5 299 -61.5s177.333 -95.833 246 -164.5s123.5 -150.667 164.5 -246s61.5 -195 61.5 -299
s-20.5 -203.667 -61.5 -299s-95.833 -177.333 -164.5 -246s-150.667 -123.5 -246 -164.5s-195 -61.5 -299 -61.5z" />
    <glyph glyph-name="minus.uc.whitecircle" unicode="&#x2212;&#x20dd;" 
d="M1155 677h-510v104h510v-104zM900 78c117.333 0 224.666 28.667 321.999 86s173.833 135.166 229.5 233.499s83.5 205.833 83.5 322.5s-27.833 224.167 -83.5 322.5s-132.167 176.166 -229.5 233.499s-204.666 86 -321.999 86s-224.666 -28.667 -321.999 -86
s-173.833 -135.166 -229.5 -233.499s-83.5 -205.833 -83.5 -322.5s27.833 -224.167 83.5 -322.5s132.167 -176.166 229.5 -233.499s204.666 -86 321.999 -86zM900 -50c-104 0 -203.667 20.5 -299 61.5s-177.333 95.833 -246 164.5s-123.5 150.667 -164.5 246
s-61.5 195 -61.5 299s20.5 203.667 61.5 299s95.833 177.333 164.5 246s150.667 123.5 246 164.5s195 61.5 299 61.5s203.667 -20.5 299 -61.5s177.333 -95.833 246 -164.5s123.5 -150.667 164.5 -246s61.5 -195 61.5 -299s-20.5 -203.667 -61.5 -299
s-95.833 -177.333 -164.5 -246s-150.667 -123.5 -246 -164.5s-195 -61.5 -299 -61.5z" />
    <glyph glyph-name="multiply.uc.whitecircle" unicode="&#xd7;&#x20dd;" 
d="M900 802l163 156l77 -73l-163 -156l163 -156l-77 -73l-163 156l-163 -156l-77 73l163 156l-163 156l77 73zM900 78c117.333 0 224.666 28.667 321.999 86s173.833 135.166 229.5 233.499s83.5 205.833 83.5 322.5s-27.833 224.167 -83.5 322.5
s-132.167 176.166 -229.5 233.499s-204.666 86 -321.999 86s-224.666 -28.667 -321.999 -86s-173.833 -135.166 -229.5 -233.499s-83.5 -205.833 -83.5 -322.5s27.833 -224.167 83.5 -322.5s132.167 -176.166 229.5 -233.499s204.666 -86 321.999 -86zM900 -50
c-104 0 -203.667 20.5 -299 61.5s-177.333 95.833 -246 164.5s-123.5 150.667 -164.5 246s-61.5 195 -61.5 299s20.5 203.667 61.5 299s95.833 177.333 164.5 246s150.667 123.5 246 164.5s195 61.5 299 61.5s203.667 -20.5 299 -61.5s177.333 -95.833 246 -164.5
s123.5 -150.667 164.5 -246s61.5 -195 61.5 -299s-20.5 -203.667 -61.5 -299s-95.833 -177.333 -164.5 -246s-150.667 -123.5 -246 -164.5s-195 -61.5 -299 -61.5z" />
    <glyph glyph-name="divide.uc.whitecircle" unicode="&#xf7;&#x20dd;" 
d="M1155 683h-510v91h510v-91zM821 934c0 22 7.5 40.167 22.5 54.5s33.5 21.5 55.5 21.5c24 0 43.667 -7.16699 59 -21.5s23 -32.5 23 -54.5c0 -20.667 -7.83301 -38 -23.5 -52s-35.167 -21 -58.5 -21c-22 0 -40.5 7 -55.5 21s-22.5 31.333 -22.5 52zM821 527
c0 22 7.5 40.167 22.5 54.5s33.833 21.5 56.5 21.5c23.333 0 42.666 -7.16699 57.999 -21.5s23 -32.5 23 -54.5c0 -20.667 -7.66699 -38 -23 -52s-34.666 -21 -57.999 -21c-22.667 0 -41.5 7 -56.5 21s-22.5 31.333 -22.5 52zM900 78c117.333 0 224.666 28.667 321.999 86
s173.833 135.166 229.5 233.499s83.5 205.833 83.5 322.5s-27.833 224.167 -83.5 322.5s-132.167 176.166 -229.5 233.499s-204.666 86 -321.999 86s-224.666 -28.667 -321.999 -86s-173.833 -135.166 -229.5 -233.499s-83.5 -205.833 -83.5 -322.5
s27.833 -224.167 83.5 -322.5s132.167 -176.166 229.5 -233.499s204.666 -86 321.999 -86zM900 -50c-104 0 -203.667 20.5 -299 61.5s-177.333 95.833 -246 164.5s-123.5 150.667 -164.5 246s-61.5 195 -61.5 299s20.5 203.667 61.5 299s95.833 177.333 164.5 246
s150.667 123.5 246 164.5s195 61.5 299 61.5s203.667 -20.5 299 -61.5s177.333 -95.833 246 -164.5s123.5 -150.667 164.5 -246s61.5 -195 61.5 -299s-20.5 -203.667 -61.5 -299s-95.833 -177.333 -164.5 -246s-150.667 -123.5 -246 -164.5s-195 -61.5 -299 -61.5z" />
    <glyph glyph-name="equal.uc.whitecircle" unicode="&#x3d;&#x20dd;" 
d="M1141 567h-482v95h482v-95zM1141 795h-482v96h482v-96zM900 78c117.333 0 224.666 28.667 321.999 86s173.833 135.166 229.5 233.499s83.5 205.833 83.5 322.5s-27.833 224.167 -83.5 322.5s-132.167 176.166 -229.5 233.499s-204.666 86 -321.999 86
s-224.666 -28.667 -321.999 -86s-173.833 -135.166 -229.5 -233.499s-83.5 -205.833 -83.5 -322.5s27.833 -224.167 83.5 -322.5s132.167 -176.166 229.5 -233.499s204.666 -86 321.999 -86zM900 -50c-104 0 -203.667 20.5 -299 61.5s-177.333 95.833 -246 164.5
s-123.5 150.667 -164.5 246s-61.5 195 -61.5 299s20.5 203.667 61.5 299s95.833 177.333 164.5 246s150.667 123.5 246 164.5s195 61.5 299 61.5s203.667 -20.5 299 -61.5s177.333 -95.833 246 -164.5s123.5 -150.667 164.5 -246s61.5 -195 61.5 -299
s-20.5 -203.667 -61.5 -299s-95.833 -177.333 -164.5 -246s-150.667 -123.5 -246 -164.5s-195 -61.5 -299 -61.5z" />
    <glyph glyph-name="greater.uc.whitecircle" unicode="&#x3e;&#x20dd;" 
d="M1166 764v-84l-482 -246v122l337 167v5l-337 173v124zM900 78c117.333 0 224.666 28.667 321.999 86s173.833 135.166 229.5 233.499s83.5 205.833 83.5 322.5s-27.833 224.167 -83.5 322.5s-132.167 176.166 -229.5 233.499s-204.666 86 -321.999 86
s-224.666 -28.667 -321.999 -86s-173.833 -135.166 -229.5 -233.499s-83.5 -205.833 -83.5 -322.5s27.833 -224.167 83.5 -322.5s132.167 -176.166 229.5 -233.499s204.666 -86 321.999 -86zM900 -50c-104 0 -203.667 20.5 -299 61.5s-177.333 95.833 -246 164.5
s-123.5 150.667 -164.5 246s-61.5 195 -61.5 299s20.5 203.667 61.5 299s95.833 177.333 164.5 246s150.667 123.5 246 164.5s195 61.5 299 61.5s203.667 -20.5 299 -61.5s177.333 -95.833 246 -164.5s123.5 -150.667 164.5 -246s61.5 -195 61.5 -299
s-20.5 -203.667 -61.5 -299s-95.833 -177.333 -164.5 -246s-150.667 -123.5 -246 -164.5s-195 -61.5 -299 -61.5z" />
    <glyph glyph-name="less.uc.whitecircle" unicode="&#x3c;&#x20dd;" 
d="M635 680v84l481 261v-124l-338 -173v-5l338 -167v-122zM900 78c117.333 0 224.666 28.667 321.999 86s173.833 135.166 229.5 233.499s83.5 205.833 83.5 322.5s-27.833 224.167 -83.5 322.5s-132.167 176.166 -229.5 233.499s-204.666 86 -321.999 86
s-224.666 -28.667 -321.999 -86s-173.833 -135.166 -229.5 -233.499s-83.5 -205.833 -83.5 -322.5s27.833 -224.167 83.5 -322.5s132.167 -176.166 229.5 -233.499s204.666 -86 321.999 -86zM900 -50c-104 0 -203.667 20.5 -299 61.5s-177.333 95.833 -246 164.5
s-123.5 150.667 -164.5 246s-61.5 195 -61.5 299s20.5 203.667 61.5 299s95.833 177.333 164.5 246s150.667 123.5 246 164.5s195 61.5 299 61.5s203.667 -20.5 299 -61.5s177.333 -95.833 246 -164.5s123.5 -150.667 164.5 -246s61.5 -195 61.5 -299
s-20.5 -203.667 -61.5 -299s-95.833 -177.333 -164.5 -246s-150.667 -123.5 -246 -164.5s-195 -61.5 -299 -61.5z" />
    <glyph glyph-name="numbersign.whitecircle" unicode="&#x30;&#x20dd;" 
d="M1187 802h-112l-30 -139h107l-19 -90h-107l-40 -190h-98l41 190h-131l-40 -190h-98l40 190h-105l18 90h106l30 139h-101l18 90h103l38 184h97l-38 -184h130l39 184h97l-38 -184h111zM842 806l-33 -153h144l33 153h-144zM900 78c117.333 0 224.666 28.667 321.999 86
s173.833 135.166 229.5 233.499s83.5 205.833 83.5 322.5s-27.833 224.167 -83.5 322.5s-132.167 176.166 -229.5 233.499s-204.666 86 -321.999 86s-224.666 -28.667 -321.999 -86s-173.833 -135.166 -229.5 -233.499s-83.5 -205.833 -83.5 -322.5
s27.833 -224.167 83.5 -322.5s132.167 -176.166 229.5 -233.499s204.666 -86 321.999 -86zM900 -50c-104 0 -203.667 20.5 -299 61.5s-177.333 95.833 -246 164.5s-123.5 150.667 -164.5 246s-61.5 195 -61.5 299s20.5 203.667 61.5 299s95.833 177.333 164.5 246
s150.667 123.5 246 164.5s195 61.5 299 61.5s203.667 -20.5 299 -61.5s177.333 -95.833 246 -164.5s123.5 -150.667 164.5 -246s61.5 -195 61.5 -299s-20.5 -203.667 -61.5 -299s-95.833 -177.333 -164.5 -246s-150.667 -123.5 -246 -164.5s-195 -61.5 -299 -61.5z" />
    <glyph glyph-name="uni25BC.whitecircle" unicode="&#x25bc;&#x20dd;" 
d="M1214 945l-314 -543l-313 543h627zM900 78c117.333 0 224.666 28.667 321.999 86s173.833 135.166 229.5 233.499s83.5 205.833 83.5 322.5s-27.833 224.167 -83.5 322.5s-132.167 176.166 -229.5 233.499s-204.666 86 -321.999 86s-224.666 -28.667 -321.999 -86
s-173.833 -135.166 -229.5 -233.499s-83.5 -205.833 -83.5 -322.5s27.833 -224.167 83.5 -322.5s132.167 -176.166 229.5 -233.499s204.666 -86 321.999 -86zM900 -50c-104 0 -203.667 20.5 -299 61.5s-177.333 95.833 -246 164.5s-123.5 150.667 -164.5 246
s-61.5 195 -61.5 299s20.5 203.667 61.5 299s95.833 177.333 164.5 246s150.667 123.5 246 164.5s195 61.5 299 61.5s203.667 -20.5 299 -61.5s177.333 -95.833 246 -164.5s123.5 -150.667 164.5 -246s61.5 -195 61.5 -299s-20.5 -203.667 -61.5 -299
s-95.833 -177.333 -164.5 -246s-150.667 -123.5 -246 -164.5s-195 -61.5 -299 -61.5z" />
    <glyph glyph-name="uni25B2.whitecircle" unicode="&#x25b2;&#x20dd;" 
d="M1214 513h-627l313 543zM900 78c117.333 0 224.666 28.667 321.999 86s173.833 135.166 229.5 233.499s83.5 205.833 83.5 322.5s-27.833 224.167 -83.5 322.5s-132.167 176.166 -229.5 233.499s-204.666 86 -321.999 86s-224.666 -28.667 -321.999 -86
s-173.833 -135.166 -229.5 -233.499s-83.5 -205.833 -83.5 -322.5s27.833 -224.167 83.5 -322.5s132.167 -176.166 229.5 -233.499s204.666 -86 321.999 -86zM900 -50c-104 0 -203.667 20.5 -299 61.5s-177.333 95.833 -246 164.5s-123.5 150.667 -164.5 246
s-61.5 195 -61.5 299s20.5 203.667 61.5 299s95.833 177.333 164.5 246s150.667 123.5 246 164.5s195 61.5 299 61.5s203.667 -20.5 299 -61.5s177.333 -95.833 246 -164.5s123.5 -150.667 164.5 -246s61.5 -195 61.5 -299s-20.5 -203.667 -61.5 -299
s-95.833 -177.333 -164.5 -246s-150.667 -123.5 -246 -164.5s-195 -61.5 -299 -61.5z" />
    <glyph glyph-name="uni25C0.whitecircle" unicode="&#x25c0;&#x20dd;" 
d="M1116 415l-543 314l543 313v-627zM900 78c117.333 0 224.666 28.667 321.999 86s173.833 135.166 229.5 233.499s83.5 205.833 83.5 322.5s-27.833 224.167 -83.5 322.5s-132.167 176.166 -229.5 233.499s-204.666 86 -321.999 86s-224.666 -28.667 -321.999 -86
s-173.833 -135.166 -229.5 -233.499s-83.5 -205.833 -83.5 -322.5s27.833 -224.167 83.5 -322.5s132.167 -176.166 229.5 -233.499s204.666 -86 321.999 -86zM900 -50c-104 0 -203.667 20.5 -299 61.5s-177.333 95.833 -246 164.5s-123.5 150.667 -164.5 246
s-61.5 195 -61.5 299s20.5 203.667 61.5 299s95.833 177.333 164.5 246s150.667 123.5 246 164.5s195 61.5 299 61.5s203.667 -20.5 299 -61.5s177.333 -95.833 246 -164.5s123.5 -150.667 164.5 -246s61.5 -195 61.5 -299s-20.5 -203.667 -61.5 -299
s-95.833 -177.333 -164.5 -246s-150.667 -123.5 -246 -164.5s-195 -61.5 -299 -61.5z" />
    <glyph glyph-name="uni25B6.whitecircle" unicode="&#x25b6;&#x20dd;" 
d="M684 415v627l543 -313zM900 78c117.333 0 224.666 28.667 321.999 86s173.833 135.166 229.5 233.499s83.5 205.833 83.5 322.5s-27.833 224.167 -83.5 322.5s-132.167 176.166 -229.5 233.499s-204.666 86 -321.999 86s-224.666 -28.667 -321.999 -86
s-173.833 -135.166 -229.5 -233.499s-83.5 -205.833 -83.5 -322.5s27.833 -224.167 83.5 -322.5s132.167 -176.166 229.5 -233.499s204.666 -86 321.999 -86zM900 -50c-104 0 -203.667 20.5 -299 61.5s-177.333 95.833 -246 164.5s-123.5 150.667 -164.5 246
s-61.5 195 -61.5 299s20.5 203.667 61.5 299s95.833 177.333 164.5 246s150.667 123.5 246 164.5s195 61.5 299 61.5s203.667 -20.5 299 -61.5s177.333 -95.833 246 -164.5s123.5 -150.667 164.5 -246s61.5 -195 61.5 -299s-20.5 -203.667 -61.5 -299
s-95.833 -177.333 -164.5 -246s-150.667 -123.5 -246 -164.5s-195 -61.5 -299 -61.5z" />
    <glyph glyph-name="question.whitecircle" unicode="&#x3f;&#x20dd;" 
d="M798 454c0 22.667 8.16699 41.168 24.5 55.501s37.5 21.5 63.5 21.5c26.667 0 48.334 -7 65.001 -21s25 -32.667 25 -56c0 -22 -8.33301 -40 -25 -54s-38.334 -21 -65.001 -21c-25.333 0 -46.333 7.16699 -63 21.5s-25 32.166 -25 53.499zM824 606.001v33.0029
c-2 35.333 5.33301 65.5 22 90.5s41.334 48.833 74.001 71.5c21.333 14.667 36.5 25.667 45.5 33s17.333 17.5 25 30.5s11.5 27.5 11.5 43.5c0 29.333 -10.167 51.666 -30.5 66.999s-45.5 23 -75.5 23c-34.667 0 -61.5 -10 -80.5 -30s-28.5 -45.333 -28.5 -76h-119
c-0.666992 36 5.66602 67.5 18.999 94.5s31.5 48.167 54.5 63.5s48 26.666 75 33.999s55.5 11 85.5 11c64.667 0 119 -15.667 163 -47s66 -76 66 -134c0 -27.333 -5.83301 -52 -17.5 -74s-23.667 -38.333 -36 -49s-29.5 -24 -51.5 -40
c-25.333 -18.667 -42.5 -31.834 -51.5 -39.501s-17 -18 -24 -31s-10.5 -28.833 -10.5 -47.5v-27h-116zM900 78.0039c117.333 0 224.666 28.667 321.999 86s173.833 135.166 229.5 233.499s83.5 205.833 83.5 322.5s-27.833 224.167 -83.5 322.5
s-132.167 176.166 -229.5 233.499s-204.666 86 -321.999 86s-224.666 -28.667 -321.999 -86s-173.833 -135.166 -229.5 -233.499s-83.5 -205.833 -83.5 -322.5s27.833 -224.167 83.5 -322.5s132.167 -176.166 229.5 -233.499s204.666 -86 321.999 -86zM900 -49.9961
c-104 0 -203.667 20.5 -299 61.5s-177.333 95.833 -246 164.5s-123.5 150.667 -164.5 246s-61.5 195 -61.5 299s20.5 203.667 61.5 299s95.833 177.333 164.5 246s150.667 123.5 246 164.5s195 61.5 299 61.5s203.667 -20.5 299 -61.5s177.333 -95.833 246 -164.5
s123.5 -150.667 164.5 -246s61.5 -195 61.5 -299s-20.5 -203.667 -61.5 -299s-95.833 -177.333 -164.5 -246s-150.667 -123.5 -246 -164.5s-195 -61.5 -299 -61.5z" />
    <glyph glyph-name="exclam.whitecircle" unicode="&#x21;&#x20dd;" 
d="M811 454c0 23.333 8.16699 42.166 24.5 56.499s37.833 21.5 64.5 21.5s48.167 -7.16699 64.5 -21.5s24.5 -33.166 24.5 -56.499c0 -22 -8.33301 -40 -25 -54s-38 -21 -64 -21s-47.333 7 -64 21s-25 32 -25 54zM830 1081h141l-15 -454h-111zM900 78
c117.333 0 224.666 28.667 321.999 86s173.833 135.166 229.5 233.499s83.5 205.833 83.5 322.5s-27.833 224.167 -83.5 322.5s-132.167 176.166 -229.5 233.499s-204.666 86 -321.999 86s-224.666 -28.667 -321.999 -86s-173.833 -135.166 -229.5 -233.499
s-83.5 -205.833 -83.5 -322.5s27.833 -224.167 83.5 -322.5s132.167 -176.166 229.5 -233.499s204.666 -86 321.999 -86zM900 -50c-104 0 -203.667 20.5 -299 61.5s-177.333 95.833 -246 164.5s-123.5 150.667 -164.5 246s-61.5 195 -61.5 299s20.5 203.667 61.5 299
s95.833 177.333 164.5 246s150.667 123.5 246 164.5s195 61.5 299 61.5s203.667 -20.5 299 -61.5s177.333 -95.833 246 -164.5s123.5 -150.667 164.5 -246s61.5 -195 61.5 -299s-20.5 -203.667 -61.5 -299s-95.833 -177.333 -164.5 -246s-150.667 -123.5 -246 -164.5
s-195 -61.5 -299 -61.5z" />
    <glyph glyph-name="uni2717.whitecircle" unicode="&#x2717;&#x20dd;" 
d="M904 806l259 258l82 -81l-258 -259l258 -259l-82 -83l-259 258l-259 -258l-83 83l258 259l-259 260l82 82zM900 78c117.333 0 224.666 28.667 321.999 86s173.833 135.166 229.5 233.499s83.5 205.833 83.5 322.5s-27.833 224.167 -83.5 322.5
s-132.167 176.166 -229.5 233.499s-204.666 86 -321.999 86s-224.666 -28.667 -321.999 -86s-173.833 -135.166 -229.5 -233.499s-83.5 -205.833 -83.5 -322.5s27.833 -224.167 83.5 -322.5s132.167 -176.166 229.5 -233.499s204.666 -86 321.999 -86zM900 -50
c-104 0 -203.667 20.5 -299 61.5s-177.333 95.833 -246 164.5s-123.5 150.667 -164.5 246s-61.5 195 -61.5 299s20.5 203.667 61.5 299s95.833 177.333 164.5 246s150.667 123.5 246 164.5s195 61.5 299 61.5s203.667 -20.5 299 -61.5s177.333 -95.833 246 -164.5
s123.5 -150.667 164.5 -246s61.5 -195 61.5 -299s-20.5 -203.667 -61.5 -299s-95.833 -177.333 -164.5 -246s-150.667 -123.5 -246 -164.5s-195 -61.5 -299 -61.5z" />
    <glyph glyph-name="uni2713.whitecircle" unicode="&#x2713;&#x20dd;" 
d="M1323 950l-546 -544l-288 285l88 87l199 -198l459 458zM900 78c117.333 0 224.666 28.667 321.999 86s173.833 135.166 229.5 233.499s83.5 205.833 83.5 322.5s-27.833 224.167 -83.5 322.5s-132.167 176.166 -229.5 233.499s-204.666 86 -321.999 86
s-224.666 -28.667 -321.999 -86s-173.833 -135.166 -229.5 -233.499s-83.5 -205.833 -83.5 -322.5s27.833 -224.167 83.5 -322.5s132.167 -176.166 229.5 -233.499s204.666 -86 321.999 -86zM900 -50c-104 0 -203.667 20.5 -299 61.5s-177.333 95.833 -246 164.5
s-123.5 150.667 -164.5 246s-61.5 195 -61.5 299s20.5 203.667 61.5 299s95.833 177.333 164.5 246s150.667 123.5 246 164.5s195 61.5 299 61.5s203.667 -20.5 299 -61.5s177.333 -95.833 246 -164.5s123.5 -150.667 164.5 -246s61.5 -195 61.5 -299
s-20.5 -203.667 -61.5 -299s-95.833 -177.333 -164.5 -246s-150.667 -123.5 -246 -164.5s-195 -61.5 -299 -61.5z" />
    <glyph glyph-name="zero.whitesquare" unicode="&#x30;&#x20de;" 
d="M900 486c44.667 0 79.834 21.833 105.501 65.5s38.5 104.834 38.5 183.501s-12.833 139.834 -38.5 183.501s-60.834 65.5 -105.501 65.5s-79.834 -21.833 -105.501 -65.5s-38.5 -104.834 -38.5 -183.501s12.833 -139.834 38.5 -183.501s60.834 -65.5 105.501 -65.5z
M900 376c-80 0 -144.667 31.833 -194 95.5s-74 151.5 -74 263.5s24.667 199.833 74 263.5s114 95.5 194 95.5s144.667 -31.833 194 -95.5s74 -151.5 74 -263.5s-24.667 -199.833 -74 -263.5s-114 -95.5 -194 -95.5zM416 1464h968c71.333 0 132.166 -24.833 182.499 -74.5
s75.5 -109.5 75.5 -179.5v-976c0 -70 -25.167 -129.833 -75.5 -179.5s-111.166 -74.5 -182.499 -74.5h-968c-71.333 0 -132.166 24.833 -182.499 74.5s-75.5 109.5 -75.5 179.5v976c0 70 25.167 129.833 75.5 179.5s111.166 74.5 182.499 74.5zM1513 1208
c0 37.333 -14.167 69.667 -42.5 97s-61.833 41 -100.5 41h-940c-38.667 0 -72.167 -13.5 -100.5 -40.5s-42.5 -59.5 -42.5 -97.5v-972c0 -37.333 14.167 -69.666 42.5 -96.999s61.833 -41 100.5 -41h940c38.667 0 72.167 13.667 100.5 41s42.5 59.666 42.5 96.999v972z" />
    <glyph glyph-name="one.whitesquare" unicode="&#x31;&#x20de;" 
d="M1009 388h-130v571h-6l-166 -114v117l172 119h130v-693zM416 1464h968c71.333 0 132.166 -24.833 182.499 -74.5s75.5 -109.5 75.5 -179.5v-976c0 -70 -25.167 -129.833 -75.5 -179.5s-111.166 -74.5 -182.499 -74.5h-968c-71.333 0 -132.166 24.833 -182.499 74.5
s-75.5 109.5 -75.5 179.5v976c0 70 25.167 129.833 75.5 179.5s111.166 74.5 182.499 74.5zM1513 1208c0 37.333 -14.167 69.667 -42.5 97s-61.833 41 -100.5 41h-940c-38.667 0 -72.167 -13.5 -100.5 -40.5s-42.5 -59.5 -42.5 -97.5v-972
c0 -37.333 14.167 -69.666 42.5 -96.999s61.833 -41 100.5 -41h940c38.667 0 72.167 13.667 100.5 41s42.5 59.666 42.5 96.999v972z" />
    <glyph glyph-name="two.whitesquare" unicode="&#x32;&#x20de;" 
d="M782 878l-123.999 -0.000976562v6c0 57.333 21.167 106.666 63.5 147.999s102.166 62 179.499 62c72 0 130.167 -18.167 174.5 -54.5s66.5 -82.5 66.5 -138.5c0 -22 -3 -42.5 -9 -61.5s-16.5 -38.667 -31.5 -59s-27.167 -35.833 -36.5 -46.5s-25.666 -28 -48.999 -52
l-174 -185v-6h313v-103h-492v77l268 280c17.333 17.333 30.833 31.833 40.5 43.5s19 26.834 28 45.501s13.5 37.334 13.5 56.001c0 30 -10.833 54.667 -32.5 74s-48.834 29 -81.501 29c-36 0 -64.5 -10.5 -85.5 -31.5s-31.5 -46.833 -31.5 -77.5v-6zM416.001 1464h968
c71.333 0 132.166 -24.833 182.499 -74.5s75.5 -109.5 75.5 -179.5v-976c0 -70 -25.167 -129.833 -75.5 -179.5s-111.166 -74.5 -182.499 -74.5h-968c-71.333 0 -132.166 24.833 -182.499 74.5s-75.5 109.5 -75.5 179.5v976c0 70 25.167 129.833 75.5 179.5
s111.166 74.5 182.499 74.5zM1513 1208c0 37.333 -14.167 69.667 -42.5 97s-61.833 41 -100.5 41h-940c-38.667 0 -72.167 -13.5 -100.5 -40.5s-42.5 -59.5 -42.5 -97.5v-972c0 -37.333 14.167 -69.666 42.5 -96.999s61.833 -41 100.5 -41h940
c38.667 0 72.167 13.667 100.5 41s42.5 59.666 42.5 96.999v972z" />
    <glyph glyph-name="three.whitesquare" unicode="&#x33;&#x20de;" 
d="M820 696l0.00390625 98.002h77c34 0 62.167 9.83301 84.5 29.5s33.5 44.167 33.5 73.5c-0.666992 28.667 -12 52.334 -34 71.001s-50 28 -84 28s-62 -8.83301 -84 -26.5s-33.667 -38.5 -35 -62.5h-122c1.33301 53.333 23.666 97.666 66.999 132.999
s102.333 53.333 177 54c72.667 0 131.167 -16.667 175.5 -50s67.166 -76.333 68.499 -129c0.666992 -44.667 -13.5 -81.334 -42.5 -110.001s-59.833 -45.667 -92.5 -51v-6c39.333 -4 75.166 -20.167 107.499 -48.5s48.833 -67.833 49.5 -118.5
c0.666992 -62 -24.833 -111.833 -76.5 -149.5s-116.167 -56.5 -193.5 -56.5c-76.667 0 -137.834 17.833 -183.501 53.5s-69.5 80.5 -71.5 134.5h120c2.66699 -26 16.5 -47.333 41.5 -64s56.5 -25.334 94.5 -26.001c41.333 0 75 10.667 101 32s39 48.333 39 81
c-1.33301 32.667 -14.333 59.167 -39 79.5s-57 30.5 -97 30.5h-81zM416.004 1464h968c71.333 0 132.166 -24.833 182.499 -74.5s75.5 -109.5 75.5 -179.5v-976c0 -70 -25.167 -129.833 -75.5 -179.5s-111.166 -74.5 -182.499 -74.5h-968
c-71.333 0 -132.166 24.833 -182.499 74.5s-75.5 109.5 -75.5 179.5v976c0 70 25.167 129.833 75.5 179.5s111.166 74.5 182.499 74.5zM1513 1208c0 37.333 -14.167 69.667 -42.5 97s-61.833 41 -100.5 41h-940c-38.667 0 -72.167 -13.5 -100.5 -40.5
s-42.5 -59.5 -42.5 -97.5v-972c0 -37.333 14.167 -69.666 42.5 -96.999s61.833 -41 100.5 -41h940c38.667 0 72.167 13.667 100.5 41s42.5 59.666 42.5 96.999v972z" />
    <glyph glyph-name="four.whitesquare" unicode="&#x34;&#x20de;" 
d="M895 1081h189v-458h91v-102h-91v-133h-123v133h-352v103c20 36 43.167 75.167 69.5 117.5l68 108.5l77 119.5zM730 623h231v361h-6c-90 -132 -165 -251 -225 -357v-4zM416 1464h968c71.333 0 132.166 -24.833 182.499 -74.5s75.5 -109.5 75.5 -179.5v-976
c0 -70 -25.167 -129.833 -75.5 -179.5s-111.166 -74.5 -182.499 -74.5h-968c-71.333 0 -132.166 24.833 -182.499 74.5s-75.5 109.5 -75.5 179.5v976c0 70 25.167 129.833 75.5 179.5s111.166 74.5 182.499 74.5zM1513 1208c0 37.333 -14.167 69.667 -42.5 97
s-61.833 41 -100.5 41h-940c-38.667 0 -72.167 -13.5 -100.5 -40.5s-42.5 -59.5 -42.5 -97.5v-972c0 -37.333 14.167 -69.666 42.5 -96.999s61.833 -41 100.5 -41h940c38.667 0 72.167 13.667 100.5 41s42.5 59.666 42.5 96.999v972z" />
    <glyph glyph-name="five.whitesquare" unicode="&#x35;&#x20de;" 
d="M652 562l121.001 -0.000976562c6 -28.667 21.5 -50.334 46.5 -65.001s54.5 -22 88.5 -22c37.333 0 69.666 12.833 96.999 38.5s41 59.834 41 102.501c0 38.667 -13.5 70.167 -40.5 94.5s-59.833 36.5 -98.5 36.5c-30.667 0 -57 -6.83301 -79 -20.5
s-37.667 -29.5 -47 -47.5h-114l32 402h434v-102h-329l-17 -195h6c10 14 27.833 27.5 53.5 40.5s56.834 19.5 93.501 19.5c66 0 121.333 -20.167 166 -60.5s67 -95.166 67 -164.499c0 -72.667 -24.833 -131.5 -74.5 -176.5s-114.834 -67.5 -195.501 -67.5
c-72 0 -131 17.667 -177 53s-70.667 80 -74 134zM416.001 1464h968c71.333 0 132.166 -24.833 182.499 -74.5s75.5 -109.5 75.5 -179.5v-976c0 -70 -25.167 -129.833 -75.5 -179.5s-111.166 -74.5 -182.499 -74.5h-968c-71.333 0 -132.166 24.833 -182.499 74.5
s-75.5 109.5 -75.5 179.5v976c0 70 25.167 129.833 75.5 179.5s111.166 74.5 182.499 74.5zM1513 1208c0 37.333 -14.167 69.667 -42.5 97s-61.833 41 -100.5 41h-940c-38.667 0 -72.167 -13.5 -100.5 -40.5s-42.5 -59.5 -42.5 -97.5v-972
c0 -37.333 14.167 -69.666 42.5 -96.999s61.833 -41 100.5 -41h940c38.667 0 72.167 13.667 100.5 41s42.5 59.666 42.5 96.999v972z" />
    <glyph glyph-name="six.whitesquare" unicode="&#x36;&#x20de;" 
d="M1158 616c0 -71.333 -23.8301 -129.331 -71.4971 -173.998s-109.834 -67 -186.501 -67c-77.333 0 -140 22.833 -188 68.5s-72 105.5 -72 179.5c0 79.333 32.667 164.666 98 255.999c4.66699 8 28.667 41.667 72 101s68.666 92.666 75.999 99.999h149
c-6.66699 -7.33301 -37.834 -47 -93.501 -119s-88.167 -114.667 -97.5 -128c-9.33301 -12.667 -17.333 -25 -24 -37l8 -2c28 29.333 67.667 44 119 44c60.667 0 111 -21 151 -63s60 -95 60 -159zM765.003 612.002c0 -38 12.667 -69.833 38 -95.5s57.333 -38.5 96 -38.5
s70.667 12.833 96 38.5s38 57.5 38 95.5s-12.667 69.833 -38 95.5s-57.333 38.5 -96 38.5s-70.667 -12.833 -96 -38.5s-38 -57.5 -38 -95.5zM416.003 1464h968c71.333 0 132.166 -24.833 182.499 -74.5s75.5 -109.5 75.5 -179.5v-976c0 -70 -25.167 -129.833 -75.5 -179.5
s-111.166 -74.5 -182.499 -74.5h-968c-71.333 0 -132.166 24.833 -182.499 74.5s-75.5 109.5 -75.5 179.5v976c0 70 25.167 129.833 75.5 179.5s111.166 74.5 182.499 74.5zM1513 1208c0 37.333 -14.167 69.667 -42.5 97s-61.833 41 -100.5 41h-940
c-38.667 0 -72.167 -13.5 -100.5 -40.5s-42.5 -59.5 -42.5 -97.5v-972c0 -37.333 14.167 -69.666 42.5 -96.999s61.833 -41 100.5 -41h940c38.667 0 72.167 13.667 100.5 41s42.5 59.666 42.5 96.999v972z" />
    <glyph glyph-name="seven.whitesquare" unicode="&#x37;&#x20de;" 
d="M662 1081h491v-105l-296 -588h-137l301 584v6h-359v103zM416 1464h968c71.333 0 132.166 -24.833 182.499 -74.5s75.5 -109.5 75.5 -179.5v-976c0 -70 -25.167 -129.833 -75.5 -179.5s-111.166 -74.5 -182.499 -74.5h-968c-71.333 0 -132.166 24.833 -182.499 74.5
s-75.5 109.5 -75.5 179.5v976c0 70 25.167 129.833 75.5 179.5s111.166 74.5 182.499 74.5zM1513 1208c0 37.333 -14.167 69.667 -42.5 97s-61.833 41 -100.5 41h-940c-38.667 0 -72.167 -13.5 -100.5 -40.5s-42.5 -59.5 -42.5 -97.5v-972
c0 -37.333 14.167 -69.666 42.5 -96.999s61.833 -41 100.5 -41h940c38.667 0 72.167 13.667 100.5 41s42.5 59.666 42.5 96.999v972z" />
    <glyph glyph-name="eight.whitesquare" unicode="&#x38;&#x20de;" 
d="M900 467c42 0 76.667 11.167 104 33.5s41 50.833 41 85.5s-13.5 63.167 -40.5 85.5s-61.833 33.5 -104.5 33.5c-42 0 -76.833 -11.333 -104.5 -34s-41.5 -51 -41.5 -85c0 -34.667 13.667 -63.167 41 -85.5s62.333 -33.5 105 -33.5zM900 793
c35.333 0 64.333 9.83301 87 29.5s34 44.834 34 75.501s-11.333 55.5 -34 74.5s-51.667 28.5 -87 28.5s-64.333 -9.5 -87 -28.5s-34 -43.833 -34 -74.5s11.333 -55.834 34 -75.501s51.667 -29.5 87 -29.5zM898 375c-81.333 0 -147.167 18.666 -197.5 55.999
s-75.5 86.333 -75.5 147c0 42.667 13.833 79.834 41.5 111.501s64.167 52.167 109.5 61.5v5c-38 12 -67.833 31.667 -89.5 59s-32.5 59.333 -32.5 96c0 53.333 23 97.166 69 131.499s105 51.5 177 51.5s131 -17.167 177 -51.5s69 -78.166 69 -131.499
c0 -36.667 -11 -69 -33 -97s-51.667 -47.333 -89 -58v-5c45.333 -9.33301 81.833 -29.666 109.5 -60.999s41.5 -68.333 41.5 -111c0 -60.667 -25.667 -109.834 -77 -147.501s-118 -56.5 -200 -56.5zM415.999 1464h968c71.333 0 132.166 -24.833 182.499 -74.5
s75.5 -109.5 75.5 -179.5v-976c0 -70 -25.167 -129.833 -75.5 -179.5s-111.166 -74.5 -182.499 -74.5h-968c-71.333 0 -132.166 24.833 -182.499 74.5s-75.5 109.5 -75.5 179.5v976c0 70 25.167 129.833 75.5 179.5s111.166 74.5 182.499 74.5zM1513 1208
c0 37.333 -14.167 69.667 -42.5 97s-61.833 41 -100.5 41h-940c-38.667 0 -72.167 -13.5 -100.5 -40.5s-42.5 -59.5 -42.5 -97.5v-972c0 -37.333 14.167 -69.666 42.5 -96.999s61.833 -41 100.5 -41h940c38.667 0 72.167 13.667 100.5 41s42.5 59.666 42.5 96.999v972z" />
    <glyph glyph-name="nine.whitesquare" unicode="&#x39;&#x20de;" 
d="M641 853c0 71.333 23.8301 129.331 71.4971 173.998s109.834 67 186.501 67c77.333 0 140 -22.833 188 -68.5s72 -105.5 72 -179.5c0 -79.333 -32.667 -164.666 -98 -255.999c-4.66699 -8 -28.667 -41.667 -72 -101s-68.666 -92.666 -75.999 -99.999h-149
c6.66699 7.33301 37.834 47 93.501 119s88.167 114.667 97.5 128c9.33301 12.667 17.333 25 24 37l-8 2c-28 -29.333 -67.667 -44 -119 -44c-60.667 0 -111 21 -151 63s-60 95 -60 159zM1034 856.998c0 38 -12.667 69.833 -38 95.5s-57.333 38.5 -96 38.5
s-70.667 -12.833 -96 -38.5s-38 -57.5 -38 -95.5s12.667 -69.833 38 -95.5s57.333 -38.5 96 -38.5s70.667 12.833 96 38.5s38 57.5 38 95.5zM415.997 1464h968c71.333 0 132.166 -24.833 182.499 -74.5s75.5 -109.5 75.5 -179.5v-976c0 -70 -25.167 -129.833 -75.5 -179.5
s-111.166 -74.5 -182.499 -74.5h-968c-71.333 0 -132.166 24.833 -182.499 74.5s-75.5 109.5 -75.5 179.5v976c0 70 25.167 129.833 75.5 179.5s111.166 74.5 182.499 74.5zM1513 1208c0 37.333 -14.167 69.667 -42.5 97s-61.833 41 -100.5 41h-940
c-38.667 0 -72.167 -13.5 -100.5 -40.5s-42.5 -59.5 -42.5 -97.5v-972c0 -37.333 14.167 -69.666 42.5 -96.999s61.833 -41 100.5 -41h940c38.667 0 72.167 13.667 100.5 41s42.5 59.666 42.5 96.999v972z" />
    <glyph glyph-name="plus.uc.whitesquare" unicode="&#x2b;&#x20de;" 
d="M954 682v-217h-108v217h-212v102h212v209h108v-209h212v-102h-212zM416 1464h968c71.333 0 132.166 -24.833 182.499 -74.5s75.5 -109.5 75.5 -179.5v-976c0 -70 -25.167 -129.833 -75.5 -179.5s-111.166 -74.5 -182.499 -74.5h-968
c-71.333 0 -132.166 24.833 -182.499 74.5s-75.5 109.5 -75.5 179.5v976c0 70 25.167 129.833 75.5 179.5s111.166 74.5 182.499 74.5zM1513 1208c0 37.333 -14.167 69.667 -42.5 97s-61.833 41 -100.5 41h-940c-38.667 0 -72.167 -13.5 -100.5 -40.5
s-42.5 -59.5 -42.5 -97.5v-972c0 -37.333 14.167 -69.666 42.5 -96.999s61.833 -41 100.5 -41h940c38.667 0 72.167 13.667 100.5 41s42.5 59.666 42.5 96.999v972z" />
    <glyph glyph-name="minus.uc.whitesquare" unicode="&#x2212;&#x20de;" 
d="M1155 677h-510v104h510v-104zM416 1464h968c71.333 0 132.166 -24.833 182.499 -74.5s75.5 -109.5 75.5 -179.5v-976c0 -70 -25.167 -129.833 -75.5 -179.5s-111.166 -74.5 -182.499 -74.5h-968c-71.333 0 -132.166 24.833 -182.499 74.5s-75.5 109.5 -75.5 179.5v976
c0 70 25.167 129.833 75.5 179.5s111.166 74.5 182.499 74.5zM1513 1208c0 37.333 -14.167 69.667 -42.5 97s-61.833 41 -100.5 41h-940c-38.667 0 -72.167 -13.5 -100.5 -40.5s-42.5 -59.5 -42.5 -97.5v-972c0 -37.333 14.167 -69.666 42.5 -96.999s61.833 -41 100.5 -41
h940c38.667 0 72.167 13.667 100.5 41s42.5 59.666 42.5 96.999v972z" />
    <glyph glyph-name="multiply.uc.whitesquare" unicode="&#xd7;&#x20de;" 
d="M900 802l163 156l77 -73l-163 -156l163 -156l-77 -73l-163 156l-163 -156l-77 73l163 156l-163 156l77 73zM416 1464h968c71.333 0 132.166 -24.833 182.499 -74.5s75.5 -109.5 75.5 -179.5v-976c0 -70 -25.167 -129.833 -75.5 -179.5s-111.166 -74.5 -182.499 -74.5
h-968c-71.333 0 -132.166 24.833 -182.499 74.5s-75.5 109.5 -75.5 179.5v976c0 70 25.167 129.833 75.5 179.5s111.166 74.5 182.499 74.5zM1513 1208c0 37.333 -14.167 69.667 -42.5 97s-61.833 41 -100.5 41h-940c-38.667 0 -72.167 -13.5 -100.5 -40.5
s-42.5 -59.5 -42.5 -97.5v-972c0 -37.333 14.167 -69.666 42.5 -96.999s61.833 -41 100.5 -41h940c38.667 0 72.167 13.667 100.5 41s42.5 59.666 42.5 96.999v972z" />
    <glyph glyph-name="divide.uc.whitesquare" unicode="&#xf7;&#x20de;" 
d="M1155 683h-510v91h510v-91zM821 934c0 22 7.5 40.167 22.5 54.5s33.5 21.5 55.5 21.5c24 0 43.667 -7.16699 59 -21.5s23 -32.5 23 -54.5c0 -20.667 -7.83301 -38 -23.5 -52s-35.167 -21 -58.5 -21c-22 0 -40.5 7 -55.5 21s-22.5 31.333 -22.5 52zM821 527
c0 22 7.5 40.167 22.5 54.5s33.833 21.5 56.5 21.5c23.333 0 42.666 -7.16699 57.999 -21.5s23 -32.5 23 -54.5c0 -20.667 -7.66699 -38 -23 -52s-34.666 -21 -57.999 -21c-22.667 0 -41.5 7 -56.5 21s-22.5 31.333 -22.5 52zM416 1464h968
c71.333 0 132.166 -24.833 182.499 -74.5s75.5 -109.5 75.5 -179.5v-976c0 -70 -25.167 -129.833 -75.5 -179.5s-111.166 -74.5 -182.499 -74.5h-968c-71.333 0 -132.166 24.833 -182.499 74.5s-75.5 109.5 -75.5 179.5v976c0 70 25.167 129.833 75.5 179.5
s111.166 74.5 182.499 74.5zM1513 1208c0 37.333 -14.167 69.667 -42.5 97s-61.833 41 -100.5 41h-940c-38.667 0 -72.167 -13.5 -100.5 -40.5s-42.5 -59.5 -42.5 -97.5v-972c0 -37.333 14.167 -69.666 42.5 -96.999s61.833 -41 100.5 -41h940
c38.667 0 72.167 13.667 100.5 41s42.5 59.666 42.5 96.999v972z" />
    <glyph glyph-name="equal.uc.whitesquare" unicode="&#x3d;&#x20de;" 
d="M1141 567h-482v95h482v-95zM1141 795h-482v96h482v-96zM416 1464h968c71.333 0 132.166 -24.833 182.499 -74.5s75.5 -109.5 75.5 -179.5v-976c0 -70 -25.167 -129.833 -75.5 -179.5s-111.166 -74.5 -182.499 -74.5h-968c-71.333 0 -132.166 24.833 -182.499 74.5
s-75.5 109.5 -75.5 179.5v976c0 70 25.167 129.833 75.5 179.5s111.166 74.5 182.499 74.5zM1513 1208c0 37.333 -14.167 69.667 -42.5 97s-61.833 41 -100.5 41h-940c-38.667 0 -72.167 -13.5 -100.5 -40.5s-42.5 -59.5 -42.5 -97.5v-972
c0 -37.333 14.167 -69.666 42.5 -96.999s61.833 -41 100.5 -41h940c38.667 0 72.167 13.667 100.5 41s42.5 59.666 42.5 96.999v972z" />
    <glyph glyph-name="greater.uc.whitesquare" unicode="&#x3e;&#x20de;" 
d="M1166 764v-84l-482 -246v122l337 167v5l-337 173v124zM416 1464h968c71.333 0 132.166 -24.833 182.499 -74.5s75.5 -109.5 75.5 -179.5v-976c0 -70 -25.167 -129.833 -75.5 -179.5s-111.166 -74.5 -182.499 -74.5h-968c-71.333 0 -132.166 24.833 -182.499 74.5
s-75.5 109.5 -75.5 179.5v976c0 70 25.167 129.833 75.5 179.5s111.166 74.5 182.499 74.5zM1513 1208c0 37.333 -14.167 69.667 -42.5 97s-61.833 41 -100.5 41h-940c-38.667 0 -72.167 -13.5 -100.5 -40.5s-42.5 -59.5 -42.5 -97.5v-972
c0 -37.333 14.167 -69.666 42.5 -96.999s61.833 -41 100.5 -41h940c38.667 0 72.167 13.667 100.5 41s42.5 59.666 42.5 96.999v972z" />
    <glyph glyph-name="less.uc.whitesquare" unicode="&#x3c;&#x20de;" 
d="M635 680v84l481 261v-124l-338 -173v-5l338 -167v-122zM416 1464h968c71.333 0 132.166 -24.833 182.499 -74.5s75.5 -109.5 75.5 -179.5v-976c0 -70 -25.167 -129.833 -75.5 -179.5s-111.166 -74.5 -182.499 -74.5h-968c-71.333 0 -132.166 24.833 -182.499 74.5
s-75.5 109.5 -75.5 179.5v976c0 70 25.167 129.833 75.5 179.5s111.166 74.5 182.499 74.5zM1513 1208c0 37.333 -14.167 69.667 -42.5 97s-61.833 41 -100.5 41h-940c-38.667 0 -72.167 -13.5 -100.5 -40.5s-42.5 -59.5 -42.5 -97.5v-972
c0 -37.333 14.167 -69.666 42.5 -96.999s61.833 -41 100.5 -41h940c38.667 0 72.167 13.667 100.5 41s42.5 59.666 42.5 96.999v972z" />
    <glyph glyph-name="numbersign.whitesquare" unicode="&#x23;&#x20de;" 
d="M1187 802h-112l-30 -139h107l-19 -90h-107l-40 -190h-98l41 190h-131l-40 -190h-98l40 190h-105l18 90h106l30 139h-101l18 90h103l38 184h97l-38 -184h130l39 184h97l-38 -184h111zM842 806l-33 -153h144l33 153h-144zM416 1464h968
c71.333 0 132.166 -24.833 182.499 -74.5s75.5 -109.5 75.5 -179.5v-976c0 -70 -25.167 -129.833 -75.5 -179.5s-111.166 -74.5 -182.499 -74.5h-968c-71.333 0 -132.166 24.833 -182.499 74.5s-75.5 109.5 -75.5 179.5v976c0 70 25.167 129.833 75.5 179.5
s111.166 74.5 182.499 74.5zM1513 1208c0 37.333 -14.167 69.667 -42.5 97s-61.833 41 -100.5 41h-940c-38.667 0 -72.167 -13.5 -100.5 -40.5s-42.5 -59.5 -42.5 -97.5v-972c0 -37.333 14.167 -69.666 42.5 -96.999s61.833 -41 100.5 -41h940
c38.667 0 72.167 13.667 100.5 41s42.5 59.666 42.5 96.999v972z" />
    <glyph glyph-name="uni25BC.whitesquare" unicode="&#x25bc;&#x20de;" 
d="M1215 945l-314 -543l-314 543h628zM416 1464h968c71.333 0 132.166 -24.833 182.499 -74.5s75.5 -109.5 75.5 -179.5v-976c0 -70 -25.167 -129.833 -75.5 -179.5s-111.166 -74.5 -182.499 -74.5h-968c-71.333 0 -132.166 24.833 -182.499 74.5s-75.5 109.5 -75.5 179.5
v976c0 70 25.167 129.833 75.5 179.5s111.166 74.5 182.499 74.5zM1513 1208c0 37.333 -14.167 69.667 -42.5 97s-61.833 41 -100.5 41h-940c-38.667 0 -72.167 -13.5 -100.5 -40.5s-42.5 -59.5 -42.5 -97.5v-972c0 -37.333 14.167 -69.666 42.5 -96.999
s61.833 -41 100.5 -41h940c38.667 0 72.167 13.667 100.5 41s42.5 59.666 42.5 96.999v972z" />
    <glyph glyph-name="uni25B2.whitesquare" unicode="&#x25b2;&#x20de;" 
d="M1214 513h-627l313 543zM416 1464h968c71.333 0 132.166 -24.833 182.499 -74.5s75.5 -109.5 75.5 -179.5v-976c0 -70 -25.167 -129.833 -75.5 -179.5s-111.166 -74.5 -182.499 -74.5h-968c-71.333 0 -132.166 24.833 -182.499 74.5s-75.5 109.5 -75.5 179.5v976
c0 70 25.167 129.833 75.5 179.5s111.166 74.5 182.499 74.5zM1513 1208c0 37.333 -14.167 69.667 -42.5 97s-61.833 41 -100.5 41h-940c-38.667 0 -72.167 -13.5 -100.5 -40.5s-42.5 -59.5 -42.5 -97.5v-972c0 -37.333 14.167 -69.666 42.5 -96.999s61.833 -41 100.5 -41
h940c38.667 0 72.167 13.667 100.5 41s42.5 59.666 42.5 96.999v972z" />
    <glyph glyph-name="uni25C0.whitesquare" unicode="&#x25c0;&#x20de;" 
d="M1116 415l-543 314l543 313v-627zM416 1464h968c71.333 0 132.166 -24.833 182.499 -74.5s75.5 -109.5 75.5 -179.5v-976c0 -70 -25.167 -129.833 -75.5 -179.5s-111.166 -74.5 -182.499 -74.5h-968c-71.333 0 -132.166 24.833 -182.499 74.5s-75.5 109.5 -75.5 179.5
v976c0 70 25.167 129.833 75.5 179.5s111.166 74.5 182.499 74.5zM1513 1208c0 37.333 -14.167 69.667 -42.5 97s-61.833 41 -100.5 41h-940c-38.667 0 -72.167 -13.5 -100.5 -40.5s-42.5 -59.5 -42.5 -97.5v-972c0 -37.333 14.167 -69.666 42.5 -96.999
s61.833 -41 100.5 -41h940c38.667 0 72.167 13.667 100.5 41s42.5 59.666 42.5 96.999v972z" />
    <glyph glyph-name="uni25B6.whitesquare" unicode="&#x25b6;&#x20de;" 
d="M684 415v627l543 -313zM416 1464h968c71.333 0 132.166 -24.833 182.499 -74.5s75.5 -109.5 75.5 -179.5v-976c0 -70 -25.167 -129.833 -75.5 -179.5s-111.166 -74.5 -182.499 -74.5h-968c-71.333 0 -132.166 24.833 -182.499 74.5s-75.5 109.5 -75.5 179.5v976
c0 70 25.167 129.833 75.5 179.5s111.166 74.5 182.499 74.5zM1513 1208c0 37.333 -14.167 69.667 -42.5 97s-61.833 41 -100.5 41h-940c-38.667 0 -72.167 -13.5 -100.5 -40.5s-42.5 -59.5 -42.5 -97.5v-972c0 -37.333 14.167 -69.666 42.5 -96.999s61.833 -41 100.5 -41
h940c38.667 0 72.167 13.667 100.5 41s42.5 59.666 42.5 96.999v972z" />
    <glyph glyph-name="question.whitesquare" unicode="&#x3f;&#x20de;" 
d="M798 454c0 22.667 8.16699 41.168 24.5 55.501s37.5 21.5 63.5 21.5c26.667 0 48.334 -7 65.001 -21s25 -32.667 25 -56c0 -22 -8.33301 -40 -25 -54s-38.334 -21 -65.001 -21c-25.333 0 -46.333 7.16699 -63 21.5s-25 32.166 -25 53.499zM668 892.001
c-0.666992 36 5.66602 67.5029 18.999 94.5029s31.5 48.167 54.5 63.5s48 26.666 75 33.999s55.5 11 85.5 11c64.667 0 119 -15.667 163 -47s66 -76 66 -134c0 -27.333 -5.83301 -52 -17.5 -74s-23.667 -38.333 -36 -49s-29.5 -24 -51.5 -40
c-25.333 -18.667 -42.5 -31.834 -51.5 -39.501s-17 -18 -24 -31s-10.5 -28.833 -10.5 -47.5v-27h-116v33c-2 35.333 5.33301 65.5 22 90.5s41.334 48.833 74.001 71.5c21.333 14.667 36.5 25.667 45.5 33s17.333 17.5 25 30.5s11.5 27.5 11.5 43.5
c0 29.333 -10.167 51.666 -30.5 66.999s-45.5 23 -75.5 23c-34.667 0 -61.5 -10 -80.5 -30s-28.5 -45.333 -28.5 -76h-119zM416 1464h968c71.333 0 132.166 -24.833 182.499 -74.5s75.5 -109.5 75.5 -179.5v-976c0 -70 -25.167 -129.833 -75.5 -179.5
s-111.166 -74.5 -182.499 -74.5h-968c-71.333 0 -132.166 24.833 -182.499 74.5s-75.5 109.5 -75.5 179.5v976c0 70 25.167 129.833 75.5 179.5s111.166 74.5 182.499 74.5zM1513 1208c0 37.333 -14.167 69.667 -42.5 97s-61.833 41 -100.5 41h-940
c-38.667 0 -72.167 -13.5 -100.5 -40.5s-42.5 -59.5 -42.5 -97.5v-972c0 -37.333 14.167 -69.666 42.5 -96.999s61.833 -41 100.5 -41h940c38.667 0 72.167 13.667 100.5 41s42.5 59.666 42.5 96.999v972z" />
    <glyph glyph-name="exclam.whitesquare" unicode="&#x21;&#x20de;" 
d="M811 454c0 23.333 8.16699 42.166 24.5 56.499s37.833 21.5 64.5 21.5s48.167 -7.16699 64.5 -21.5s24.5 -33.166 24.5 -56.499c0 -22 -8.33301 -40 -25 -54s-38 -21 -64 -21s-47.333 7 -64 21s-25 32 -25 54zM830 1081h141l-15 -454h-111zM416 1464h968
c71.333 0 132.166 -24.833 182.499 -74.5s75.5 -109.5 75.5 -179.5v-976c0 -70 -25.167 -129.833 -75.5 -179.5s-111.166 -74.5 -182.499 -74.5h-968c-71.333 0 -132.166 24.833 -182.499 74.5s-75.5 109.5 -75.5 179.5v976c0 70 25.167 129.833 75.5 179.5
s111.166 74.5 182.499 74.5zM1513 1208c0 37.333 -14.167 69.667 -42.5 97s-61.833 41 -100.5 41h-940c-38.667 0 -72.167 -13.5 -100.5 -40.5s-42.5 -59.5 -42.5 -97.5v-972c0 -37.333 14.167 -69.666 42.5 -96.999s61.833 -41 100.5 -41h940
c38.667 0 72.167 13.667 100.5 41s42.5 59.666 42.5 96.999v972z" />
    <glyph glyph-name="uni2717.whitesquare" unicode="&#x2717;&#x20de;" 
d="M904 806l259 258l82 -81l-258 -259l258 -259l-82 -83l-259 258l-259 -258l-83 83l258 259l-259 260l82 82zM416 1464h968c71.333 0 132.166 -24.833 182.499 -74.5s75.5 -109.5 75.5 -179.5v-976c0 -70 -25.167 -129.833 -75.5 -179.5s-111.166 -74.5 -182.499 -74.5
h-968c-71.333 0 -132.166 24.833 -182.499 74.5s-75.5 109.5 -75.5 179.5v976c0 70 25.167 129.833 75.5 179.5s111.166 74.5 182.499 74.5zM1513 1208c0 37.333 -14.167 69.667 -42.5 97s-61.833 41 -100.5 41h-940c-38.667 0 -72.167 -13.5 -100.5 -40.5
s-42.5 -59.5 -42.5 -97.5v-972c0 -37.333 14.167 -69.666 42.5 -96.999s61.833 -41 100.5 -41h940c38.667 0 72.167 13.667 100.5 41s42.5 59.666 42.5 96.999v972z" />
    <glyph glyph-name="uni2713.whitesquare" unicode="&#x2713;&#x20de;" 
d="M1323 950l-546 -544l-288 285l88 87l199 -198l459 458zM416 1464h968c71.333 0 132.166 -24.833 182.499 -74.5s75.5 -109.5 75.5 -179.5v-976c0 -70 -25.167 -129.833 -75.5 -179.5s-111.166 -74.5 -182.499 -74.5h-968c-71.333 0 -132.166 24.833 -182.499 74.5
s-75.5 109.5 -75.5 179.5v976c0 70 25.167 129.833 75.5 179.5s111.166 74.5 182.499 74.5zM1513 1208c0 37.333 -14.167 69.667 -42.5 97s-61.833 41 -100.5 41h-940c-38.667 0 -72.167 -13.5 -100.5 -40.5s-42.5 -59.5 -42.5 -97.5v-972
c0 -37.333 14.167 -69.666 42.5 -96.999s61.833 -41 100.5 -41h940c38.667 0 72.167 13.667 100.5 41s42.5 59.666 42.5 96.999v972z" />
    <glyph glyph-name="plus.uc.blackcircle" unicode="&#x2b;&#x20dd;&#x25cf;" 
d="M965 674h231v121h-231v228h-130v-228h-231v-121h231v-237h130v237zM900 -50c-104 0 -203.667 20.5 -299 61.5s-177.333 95.833 -246 164.5s-123.5 150.667 -164.5 246s-61.5 195 -61.5 299s20.5 203.667 61.5 299s95.833 177.333 164.5 246s150.667 123.5 246 164.5
s195 61.5 299 61.5s203.667 -20.5 299 -61.5s177.333 -95.833 246 -164.5s123.5 -150.667 164.5 -246s61.5 -195 61.5 -299s-20.5 -203.667 -61.5 -299s-95.833 -177.333 -164.5 -246s-150.667 -123.5 -246 -164.5s-195 -61.5 -299 -61.5z" />
    <glyph glyph-name="minus.uc.blackcircle" unicode="&#x2212;&#x20dd;&#x25cf;" 
d="M1184 668v124h-568v-124h568zM900 -50c-104 0 -203.667 20.5 -299 61.5s-177.333 95.833 -246 164.5s-123.5 150.667 -164.5 246s-61.5 195 -61.5 299s20.5 203.667 61.5 299s95.833 177.333 164.5 246s150.667 123.5 246 164.5s195 61.5 299 61.5
s203.667 -20.5 299 -61.5s177.333 -95.833 246 -164.5s123.5 -150.667 164.5 -246s61.5 -195 61.5 -299s-20.5 -203.667 -61.5 -299s-95.833 -177.333 -164.5 -246s-150.667 -123.5 -246 -164.5s-195 -61.5 -299 -61.5z" />
    <glyph glyph-name="multiply.uc.blackcircle" unicode="&#xd7;&#x20dd;&#x25cf;" 
d="M900 817l-178 170l-91 -87l178 -171l-178 -169l91 -87l178 169l178 -169l91 87l-178 169l178 171l-91 87zM900 -50c-104 0 -203.667 20.5 -299 61.5s-177.333 95.833 -246 164.5s-123.5 150.667 -164.5 246s-61.5 195 -61.5 299s20.5 203.667 61.5 299
s95.833 177.333 164.5 246s150.667 123.5 246 164.5s195 61.5 299 61.5s203.667 -20.5 299 -61.5s177.333 -95.833 246 -164.5s123.5 -150.667 164.5 -246s61.5 -195 61.5 -299s-20.5 -203.667 -61.5 -299s-95.833 -177.333 -164.5 -246s-150.667 -123.5 -246 -164.5
s-195 -61.5 -299 -61.5z" />
    <glyph glyph-name="divide.uc.blackcircle" unicode="&#xf7;&#x20dd;&#x25cf;" 
d="M808 953c0 -24.667 8.66699 -45 26 -61s39 -24 65 -24s48.167 8.16699 66.5 24.5s27.5 36.5 27.5 60.5c0 26 -9 47.167 -27 63.5s-40.333 24.5 -67 24.5c-26 0 -47.667 -8.16699 -65 -24.5s-26 -37.5 -26 -63.5zM1184 674v110h-568v-110h568zM808 510
c0 -24.667 8.83398 -45 26.501 -61s39.5 -24 65.5 -24s48 8.16699 66 24.5s27 36.5 27 60.5c0 26 -8.83301 47.167 -26.5 63.5s-39.834 24.5 -66.501 24.5c-26 0 -47.833 -8.16699 -65.5 -24.5s-26.5 -37.5 -26.5 -63.5zM900.001 -50c-104 0 -203.667 20.5 -299 61.5
s-177.333 95.833 -246 164.5s-123.5 150.667 -164.5 246s-61.5 195 -61.5 299s20.5 203.667 61.5 299s95.833 177.333 164.5 246s150.667 123.5 246 164.5s195 61.5 299 61.5s203.667 -20.5 299 -61.5s177.333 -95.833 246 -164.5s123.5 -150.667 164.5 -246
s61.5 -195 61.5 -299s-20.5 -203.667 -61.5 -299s-95.833 -177.333 -164.5 -246s-150.667 -123.5 -246 -164.5s-195 -61.5 -299 -61.5z" />
    <glyph glyph-name="equal.uc.blackcircle" unicode="&#x3d;&#x20dd;&#x25cf;" 
d="M1167 796v116h-534v-116h534zM1167 548v115h-534v-115h534zM900 -50c-104 0 -203.667 20.5 -299 61.5s-177.333 95.833 -246 164.5s-123.5 150.667 -164.5 246s-61.5 195 -61.5 299s20.5 203.667 61.5 299s95.833 177.333 164.5 246s150.667 123.5 246 164.5
s195 61.5 299 61.5s203.667 -20.5 299 -61.5s177.333 -95.833 246 -164.5s123.5 -150.667 164.5 -246s61.5 -195 61.5 -299s-20.5 -203.667 -61.5 -299s-95.833 -177.333 -164.5 -246s-150.667 -123.5 -246 -164.5s-195 -61.5 -299 -61.5z" />
    <glyph glyph-name="greater.uc.blackcircle" unicode="&#x3e;&#x20dd;&#x25cf;" 
d="M1188 770l-535 290v-145l368 -190l1 -1l-369 -179v-145l535 274v96zM900 -50c-104 0 -203.667 20.5 -299 61.5s-177.333 95.833 -246 164.5s-123.5 150.667 -164.5 246s-61.5 195 -61.5 299s20.5 203.667 61.5 299s95.833 177.333 164.5 246s150.667 123.5 246 164.5
s195 61.5 299 61.5s203.667 -20.5 299 -61.5s177.333 -95.833 246 -164.5s123.5 -150.667 164.5 -246s61.5 -195 61.5 -299s-20.5 -203.667 -61.5 -299s-95.833 -177.333 -164.5 -246s-150.667 -123.5 -246 -164.5s-195 -61.5 -299 -61.5z" />
    <glyph glyph-name="less.uc.blackcircle" unicode="&#x3c;&#x20dd;&#x25cf;" 
d="M604 674l534 -274v145l-367 179v1l367 190v145l-534 -290v-96zM900 -50c-104 0 -203.667 20.5 -299 61.5s-177.333 95.833 -246 164.5s-123.5 150.667 -164.5 246s-61.5 195 -61.5 299s20.5 203.667 61.5 299s95.833 177.333 164.5 246s150.667 123.5 246 164.5
s195 61.5 299 61.5s203.667 -20.5 299 -61.5s177.333 -95.833 246 -164.5s123.5 -150.667 164.5 -246s61.5 -195 61.5 -299s-20.5 -203.667 -61.5 -299s-95.833 -177.333 -164.5 -246s-150.667 -123.5 -246 -164.5s-195 -61.5 -299 -61.5z" />
    <glyph glyph-name="numbersign.blackcircle" unicode="&#x23;&#x20dd;&#x25cf;" 
d="M840 809h147l-34 -157h-146zM1217 805l22 108h-122l42 200h-117l-41 -200h-132l42 200h-117l-41 -200h-113l-22 -108h111l-30 -141h-116l-22 -110h114l-43 -206h117l44 206h132l-44 -206h117l43 206h117l23 110h-116l29 141h123zM900 -50c-104 0 -203.667 20.5 -299 61.5
s-177.333 95.833 -246 164.5s-123.5 150.667 -164.5 246s-61.5 195 -61.5 299s20.5 203.667 61.5 299s95.833 177.333 164.5 246s150.667 123.5 246 164.5s195 61.5 299 61.5s203.667 -20.5 299 -61.5s177.333 -95.833 246 -164.5s123.5 -150.667 164.5 -246
s61.5 -195 61.5 -299s-20.5 -203.667 -61.5 -299s-95.833 -177.333 -164.5 -246s-150.667 -123.5 -246 -164.5s-195 -61.5 -299 -61.5z" />
    <glyph glyph-name="uni25BC.blackcircle" unicode="&#x25bc;&#x20dd;&#x25cf;" 
d="M1246 980h-691l345 -598zM900 -50c-104 0 -203.667 20.5 -299 61.5s-177.333 95.833 -246 164.5s-123.5 150.667 -164.5 246s-61.5 195 -61.5 299s20.5 203.667 61.5 299s95.833 177.333 164.5 246s150.667 123.5 246 164.5s195 61.5 299 61.5s203.667 -20.5 299 -61.5
s177.333 -95.833 246 -164.5s123.5 -150.667 164.5 -246s61.5 -195 61.5 -299s-20.5 -203.667 -61.5 -299s-95.833 -177.333 -164.5 -246s-150.667 -123.5 -246 -164.5s-195 -61.5 -299 -61.5z" />
    <glyph glyph-name="uni25B2.blackcircle" unicode="&#x25b2;&#x20dd;&#x25cf;" 
d="M1246 493l-346 598l-345 -598h691zM900 -50c-104 0 -203.667 20.5 -299 61.5s-177.333 95.833 -246 164.5s-123.5 150.667 -164.5 246s-61.5 195 -61.5 299s20.5 203.667 61.5 299s95.833 177.333 164.5 246s150.667 123.5 246 164.5s195 61.5 299 61.5
s203.667 -20.5 299 -61.5s177.333 -95.833 246 -164.5s123.5 -150.667 164.5 -246s61.5 -195 61.5 -299s-20.5 -203.667 -61.5 -299s-95.833 -177.333 -164.5 -246s-150.667 -123.5 -246 -164.5s-195 -61.5 -299 -61.5z" />
    <glyph glyph-name="uni25C0.blackcircle" unicode="&#x25c0;&#x20dd;&#x25cf;" 
d="M1144 392v689l-599 -344zM900 -50c-104 0 -203.667 20.5 -299 61.5s-177.333 95.833 -246 164.5s-123.5 150.667 -164.5 246s-61.5 195 -61.5 299s20.5 203.667 61.5 299s95.833 177.333 164.5 246s150.667 123.5 246 164.5s195 61.5 299 61.5s203.667 -20.5 299 -61.5
s177.333 -95.833 246 -164.5s123.5 -150.667 164.5 -246s61.5 -195 61.5 -299s-20.5 -203.667 -61.5 -299s-95.833 -177.333 -164.5 -246s-150.667 -123.5 -246 -164.5s-195 -61.5 -299 -61.5z" />
    <glyph glyph-name="uni25B6.blackcircle" unicode="&#x25b6;&#x20dd;&#x25cf;" 
d="M656 392l599 345l-599 344v-689zM900 -50c-104 0 -203.667 20.5 -299 61.5s-177.333 95.833 -246 164.5s-123.5 150.667 -164.5 246s-61.5 195 -61.5 299s20.5 203.667 61.5 299s95.833 177.333 164.5 246s150.667 123.5 246 164.5s195 61.5 299 61.5
s203.667 -20.5 299 -61.5s177.333 -95.833 246 -164.5s123.5 -150.667 164.5 -246s61.5 -195 61.5 -299s-20.5 -203.667 -61.5 -299s-95.833 -177.333 -164.5 -246s-150.667 -123.5 -246 -164.5s-195 -61.5 -299 -61.5z" />
    <glyph glyph-name="question.blackcircle" unicode="&#x3f;&#x20dd;&#x25cf;" 
d="M779 429c0 -25.333 9.66797 -46.1641 29.001 -62.4971s43.666 -24.5 72.999 -24.5c30.667 0 55.5 8.16699 74.5 24.5s28.5 37.166 28.5 62.499c0 27.333 -9.5 49.166 -28.5 65.499s-43.833 24.5 -74.5 24.5c-30 0 -54.5 -8.33301 -73.5 -25s-28.5 -38.334 -28.5 -65.001z
M808.001 590.002l137.001 0.00195312v34c0 28 5.83301 49.167 17.5 63.5s36.167 34.5 73.5 60.5c24.667 18 43.834 33 57.501 45s27 30.5 40 55.5s19.5 52.5 19.5 82.5c0 64.667 -24.5 114.667 -73.5 150s-109.5 53 -181.5 53c-33.333 0 -64.833 -4.16699 -94.5 -12.5
s-57.334 -21 -83.001 -38s-46 -40.667 -61 -71s-22.5 -65.5 -22.5 -105.5v-5h140c0 33.333 10 60.833 30 82.5s48.333 32.5 85 32.5c30.667 0 56.667 -7.83301 78 -23.5s32 -38.834 32 -69.501c0 -16.667 -4.33301 -31.834 -13 -45.501s-17.834 -24.5 -27.501 -32.5
s-25.167 -19.333 -46.5 -34c-36.667 -25.333 -64.167 -52 -82.5 -80s-26.5 -61.667 -24.5 -101v-41zM902.002 -49.9961c-104 0 -203.667 20.5 -299 61.5s-177.333 95.833 -246 164.5s-123.5 150.667 -164.5 246s-61.5 195 -61.5 299s20.5 203.667 61.5 299
s95.833 177.333 164.5 246s150.667 123.5 246 164.5s195 61.5 299 61.5s203.667 -20.5 299 -61.5s177.333 -95.833 246 -164.5s123.5 -150.667 164.5 -246s61.5 -195 61.5 -299s-20.5 -203.667 -61.5 -299s-95.833 -177.333 -164.5 -246s-150.667 -123.5 -246 -164.5
s-195 -61.5 -299 -61.5z" />
    <glyph glyph-name="exclam.blackcircle" unicode="&#x21;&#x20dd;&#x25cf;" 
d="M817 1118l17 -505h132l17 505h-166zM798 430c0 -24.667 9.5 -45.334 28.5 -62.001s43.5 -25 73.5 -25s54.5 8.33301 73.5 25s28.5 37.334 28.5 62.001c0 26.667 -9.5 48.167 -28.5 64.5s-43.5 24.5 -73.5 24.5s-54.5 -8.16699 -73.5 -24.5s-28.5 -37.833 -28.5 -64.5z
M900 -50c-104 0 -203.667 20.5 -299 61.5s-177.333 95.833 -246 164.5s-123.5 150.667 -164.5 246s-61.5 195 -61.5 299s20.5 203.667 61.5 299s95.833 177.333 164.5 246s150.667 123.5 246 164.5s195 61.5 299 61.5s203.667 -20.5 299 -61.5s177.333 -95.833 246 -164.5
s123.5 -150.667 164.5 -246s61.5 -195 61.5 -299s-20.5 -203.667 -61.5 -299s-95.833 -177.333 -164.5 -246s-150.667 -123.5 -246 -164.5s-195 -61.5 -299 -61.5z" />
    <glyph glyph-name="uni2717.blackcircle" unicode="&#x2717;&#x20dd;&#x25cf;" 
d="M904 816l-286 287l-91 -90l285 -287l-284 -284l92 -92l284 284l285 -284l90 92l-284 284l284 284l-90 91zM900 -50c-104 0 -203.667 20.5 -299 61.5s-177.333 95.833 -246 164.5s-123.5 150.667 -164.5 246s-61.5 195 -61.5 299s20.5 203.667 61.5 299
s95.833 177.333 164.5 246s150.667 123.5 246 164.5s195 61.5 299 61.5s203.667 -20.5 299 -61.5s177.333 -95.833 246 -164.5s123.5 -150.667 164.5 -246s61.5 -195 61.5 -299s-20.5 -203.667 -61.5 -299s-95.833 -177.333 -164.5 -246s-150.667 -123.5 -246 -164.5
s-195 -61.5 -299 -61.5z" />
    <glyph glyph-name="uni2713.blackcircle" unicode="&#x2713;&#x20dd;&#x25cf;" 
d="M764 377l600 599l-97 96l-504 -503l-218 217l-97 -96zM900 -50c-104 0 -203.667 20.5 -299 61.5s-177.333 95.833 -246 164.5s-123.5 150.667 -164.5 246s-61.5 195 -61.5 299s20.5 203.667 61.5 299s95.833 177.333 164.5 246s150.667 123.5 246 164.5
s195 61.5 299 61.5s203.667 -20.5 299 -61.5s177.333 -95.833 246 -164.5s123.5 -150.667 164.5 -246s61.5 -195 61.5 -299s-20.5 -203.667 -61.5 -299s-95.833 -177.333 -164.5 -246s-150.667 -123.5 -246 -164.5s-195 -61.5 -299 -61.5z" />
    <glyph glyph-name="zero.blacksquare" unicode="&#x30;&#x20de;&#x25a0;" 
d="M896 461c-46.667 0 -83 23.667 -109 71s-39 115 -39 203s13 155.667 39 203s62.333 71 109 71s83 -23.667 109 -71s39 -115 39 -203s-13 -155.667 -39 -203s-62.333 -71 -109 -71zM896 338c92 0 165.333 35.5 220 106.5s82 167.833 82 290.5s-27.333 219.5 -82 290.5
s-128 106.5 -220 106.5s-165.333 -35.5 -220 -106.5s-82 -167.833 -82 -290.5s27.333 -219.5 82 -290.5s128 -106.5 220 -106.5zM416 1464h968c71.333 0 132.166 -24.833 182.499 -74.5s75.5 -109.5 75.5 -179.5v-976c0 -70 -25.167 -129.833 -75.5 -179.5
s-111.166 -74.5 -182.499 -74.5h-968c-71.333 0 -132.166 24.833 -182.499 74.5s-75.5 109.5 -75.5 179.5v976c0 70 25.167 129.833 75.5 179.5s111.166 74.5 182.499 74.5z" />
    <glyph glyph-name="one.blacksquare" unicode="&#x31;&#x20de;&#x25a0;" 
d="M1023 353v765h-148l-191 -132v-140l187 128h1v-621h151zM416 1464h968c71.333 0 132.166 -24.833 182.499 -74.5s75.5 -109.5 75.5 -179.5v-976c0 -70 -25.167 -129.833 -75.5 -179.5s-111.166 -74.5 -182.499 -74.5h-968c-71.333 0 -132.166 24.833 -182.499 74.5
s-75.5 109.5 -75.5 179.5v976c0 70 25.167 129.833 75.5 179.5s111.166 74.5 182.499 74.5z" />
    <glyph glyph-name="two.blacksquare" unicode="&#x32;&#x20de;&#x25a0;" 
d="M772 886l0.000976562 10.999c0 32 10.833 59.167 32.5 81.5s51.5 33.5 89.5 33.5c34 0 62.333 -10.167 85 -30.5s34 -45.833 34 -76.5c0 -20 -4.83301 -40.167 -14.5 -60.5s-19.667 -36.666 -30 -48.999s-24.833 -27.833 -43.5 -46.5l-293 -306v-91h546v122h-342l203 212
l48.5 54c10.333 12 22.666 28.333 36.999 49s24.5 41.167 30.5 61.5s9 42.166 9 65.499c0 62 -24.667 113.333 -74 154s-114 61 -194 61c-86 0 -152.5 -23.167 -199.5 -69.5s-70.5 -101.166 -70.5 -164.499v-11h146zM416.001 1464h968
c71.333 0 132.166 -24.833 182.499 -74.5s75.5 -109.5 75.5 -179.5v-976c0 -70 -25.167 -129.833 -75.5 -179.5s-111.166 -74.5 -182.499 -74.5h-968c-71.333 0 -132.166 24.833 -182.499 74.5s-75.5 109.5 -75.5 179.5v976c0 70 25.167 129.833 75.5 179.5
s111.166 74.5 182.499 74.5z" />
    <glyph glyph-name="three.blacksquare" unicode="&#x33;&#x20de;&#x25a0;" 
d="M804 688h93c42 0 75.833 -10.667 101.5 -32s38.834 -49 39.501 -83c0 -34.667 -13.333 -62.834 -40 -84.501s-62 -32.5 -106 -32.5c-39.333 0.666992 -72.333 10.167 -99 28.5s-41.667 41.5 -45 69.5h-140c2.66699 -61.333 29.167 -112.666 79.5 -153.999
s118.166 -62 203.499 -62c86 0 157.667 21 215 63s85.666 98 84.999 168c-2 55.333 -20.167 98.833 -54.5 130.5s-72.5 49.834 -114.5 54.501c35.333 7.33301 68.333 27 99 59s45.667 72 45 120c-1.33301 58.667 -26.666 106.667 -75.999 144s-114 56 -194 56
c-83.333 -0.666992 -149 -21.334 -197 -62.001s-73 -91.667 -75 -153h144c1.33301 26.667 13.5 49.5 36.5 68.5s52.167 28.5 87.5 28.5c36 0 65.5 -9.5 88.5 -28.5s34.833 -43.833 35.5 -74.5c0 -30.667 -11.667 -56 -35 -76s-53 -30 -89 -30h-88v-118zM416 1464h968
c71.333 0 132.166 -24.833 182.499 -74.5s75.5 -109.5 75.5 -179.5v-976c0 -70 -25.167 -129.833 -75.5 -179.5s-111.166 -74.5 -182.499 -74.5h-968c-71.333 0 -132.166 24.833 -182.499 74.5s-75.5 109.5 -75.5 179.5v976c0 70 25.167 129.833 75.5 179.5
s111.166 74.5 182.499 74.5z" />
    <glyph glyph-name="four.blacksquare" unicode="&#x34;&#x20de;&#x25a0;" 
d="M888 1118c-162.667 -253.333 -267.333 -421 -314 -503v-117h383v-145h145v145h100v120h-100v500h-214zM716.001 619c51.333 89.333 131.667 216 241 380v-381h-241v1zM416.002 1464h968c71.333 0 132.166 -24.833 182.499 -74.5s75.5 -109.5 75.5 -179.5v-976
c0 -70 -25.167 -129.833 -75.5 -179.5s-111.166 -74.5 -182.499 -74.5h-968c-71.333 0 -132.166 24.833 -182.499 74.5s-75.5 109.5 -75.5 179.5v976c0 70 25.167 129.833 75.5 179.5s111.166 74.5 182.499 74.5z" />
    <glyph glyph-name="five.blacksquare" unicode="&#x35;&#x20de;&#x25a0;" 
d="M619 552c3.33301 -62 30.501 -113.001 81.501 -153.001s116.833 -60 197.5 -60c88.667 0 160.667 25 216 75s83 115.667 83 197c0 76 -25 136.5 -75 181.5s-111.333 67.5 -184 67.5c-38 0 -70.833 -6.5 -98.5 -19.5s-48.167 -27.5 -61.5 -43.5
c7.33301 98.667 13 165.667 17 201h359v120h-483l-35 -448h131c10.667 19.333 27.667 36.5 51 51.5s51.333 22.5 84 22.5c40.667 0 75.167 -12.667 103.5 -38s42.5 -58.666 42.5 -99.999c0 -45.333 -14.333 -81.333 -43 -108s-62.334 -40 -101.001 -40
c-35.333 0 -66.5 8.16699 -93.5 24.5s-43.5 39.5 -49.5 69.5h-142zM416.001 1464h968c71.333 0 132.166 -24.833 182.499 -74.5s75.5 -109.5 75.5 -179.5v-976c0 -70 -25.167 -129.833 -75.5 -179.5s-111.166 -74.5 -182.499 -74.5h-968
c-71.333 0 -132.166 24.833 -182.499 74.5s-75.5 109.5 -75.5 179.5v976c0 70 25.167 129.833 75.5 179.5s111.166 74.5 182.499 74.5z" />
    <glyph glyph-name="six.blacksquare" unicode="&#x36;&#x20de;&#x25a0;" 
d="M1193 606c0 70.667 -21.835 128.999 -65.502 174.999s-99.167 69 -166.5 69c-56 0 -100.333 -15.667 -133 -47l-8 2c2.66699 4.66699 14.667 22.334 36 53.001c72.667 99.333 139.334 186 200.001 260h-164c-8 -9.33301 -36 -46.666 -84 -111.999s-74.333 -102 -79 -110
c-72 -102 -108 -196 -108 -282c0 -82 26.5 -148.333 79.5 -199s122.167 -76 207.5 -76c84.667 0 153.334 24.667 206.001 74s79 113.666 79 192.999zM759.998 600.999c0 42 14 77.167 42 105.5s63 42.5 105 42.5s77 -14.167 105 -42.5s42 -63.5 42 -105.5
s-14 -77.167 -42 -105.5s-63 -42.5 -105 -42.5s-77 14.167 -105 42.5s-42 63.5 -42 105.5zM415.998 1464h968c71.333 0 132.166 -24.833 182.499 -74.5s75.5 -109.5 75.5 -179.5v-976c0 -70 -25.167 -129.833 -75.5 -179.5s-111.166 -74.5 -182.499 -74.5h-968
c-71.333 0 -132.166 24.833 -182.499 74.5s-75.5 109.5 -75.5 179.5v976c0 70 25.167 129.833 75.5 179.5s111.166 74.5 182.499 74.5z" />
    <glyph glyph-name="seven.blacksquare" unicode="&#x37;&#x20de;&#x25a0;" 
d="M631 1118v-123h392v-1l-332 -641h159l325 645v120h-544zM416 1464h968c71.333 0 132.166 -24.833 182.499 -74.5s75.5 -109.5 75.5 -179.5v-976c0 -70 -25.167 -129.833 -75.5 -179.5s-111.166 -74.5 -182.499 -74.5h-968c-71.333 0 -132.166 24.833 -182.499 74.5
s-75.5 109.5 -75.5 179.5v976c0 70 25.167 129.833 75.5 179.5s111.166 74.5 182.499 74.5z" />
    <glyph glyph-name="eight.blacksquare" unicode="&#x38;&#x20de;&#x25a0;" 
d="M896 805c-37.333 0 -67.5 10 -90.5 30s-34.5 46 -34.5 78s11.5 58 34.5 78s53.167 30 90.5 30s67.5 -10 90.5 -30s34.5 -46 34.5 -78s-11.5 -58 -34.5 -78s-53.167 -30 -90.5 -30zM896 449c-44.667 0 -81.5 11.833 -110.5 35.5s-43.5 53.167 -43.5 88.5
c0 36 14.5 65.833 43.5 89.5s65.833 35.5 110.5 35.5s81.5 -11.833 110.5 -35.5s43.5 -53.5 43.5 -89.5c0 -35.333 -14.5 -64.833 -43.5 -88.5s-65.833 -35.5 -110.5 -35.5zM896 338c90.667 0 164 20.833 220 62.5s84 96.5 84 164.5c0 46.667 -14.667 87.167 -44 121.5
s-69 56.833 -119 67.5c41.333 14 73.5 36.167 96.5 66.5s34.5 66.166 34.5 107.499c0 60.667 -25.167 110 -75.5 148s-115.833 57 -196.5 57s-146.167 -19 -196.5 -57s-75.5 -87.333 -75.5 -148c0 -41.333 11.5 -77.166 34.5 -107.499s55.167 -52.5 96.5 -66.5
c-50 -10.667 -89.667 -33.167 -119 -67.5s-44 -74.833 -44 -121.5c0 -68 28 -122.833 84 -164.5s129.333 -62.5 220 -62.5zM416 1464h968c71.333 0 132.166 -24.833 182.499 -74.5s75.5 -109.5 75.5 -179.5v-976c0 -70 -25.167 -129.833 -75.5 -179.5
s-111.166 -74.5 -182.499 -74.5h-968c-71.333 0 -132.166 24.833 -182.499 74.5s-75.5 109.5 -75.5 179.5v976c0 70 25.167 129.833 75.5 179.5s111.166 74.5 182.499 74.5z" />
    <glyph glyph-name="nine.blacksquare" unicode="&#x39;&#x20de;&#x25a0;" 
d="M602 864c0 -70.667 21.834 -129 65.501 -175s99.167 -69 166.5 -69c56 0 100.333 15.667 133 47l8 -2l-28 -42c-26 -36.667 -63.5 -86.5 -112.5 -149.5l-95.5 -121.5h164c8 9.33301 36 46.666 84 111.999s74.333 102 79 110c72 102 108 196 108 282
c0 82 -26.5 148.333 -79.5 199s-122.167 76 -207.5 76c-84.667 0 -153.334 -24.667 -206.001 -74s-79 -113.666 -79 -192.999zM1035 869c0 -42 -14 -77.167 -42 -105.5s-63 -42.5 -105 -42.5s-77 14.167 -105 42.5s-42 63.5 -42 105.5s14 77.167 42 105.5s63 42.5 105 42.5
s77 -14.167 105 -42.5s42 -63.5 42 -105.5zM416.001 1464h968c71.333 0 132.166 -24.833 182.499 -74.5s75.5 -109.5 75.5 -179.5v-976c0 -70 -25.167 -129.833 -75.5 -179.5s-111.166 -74.5 -182.499 -74.5h-968c-71.333 0 -132.166 24.833 -182.499 74.5
s-75.5 109.5 -75.5 179.5v976c0 70 25.167 129.833 75.5 179.5s111.166 74.5 182.499 74.5z" />
    <glyph glyph-name="plus.uc.blacksquare" unicode="&#x2b;&#x20de;&#x25a0;" 
d="M965 674h231v121h-231v228h-130v-228h-231v-121h231v-237h130v237zM416 1464h968c71.333 0 132.166 -24.833 182.499 -74.5s75.5 -109.5 75.5 -179.5v-976c0 -70 -25.167 -129.833 -75.5 -179.5s-111.166 -74.5 -182.499 -74.5h-968
c-71.333 0 -132.166 24.833 -182.499 74.5s-75.5 109.5 -75.5 179.5v976c0 70 25.167 129.833 75.5 179.5s111.166 74.5 182.499 74.5z" />
    <glyph glyph-name="minus.uc.blacksquare" unicode="&#x2212;&#x20de;&#x25a0;" 
d="M1184 668v124h-568v-124h568zM416 1464h968c71.333 0 132.166 -24.833 182.499 -74.5s75.5 -109.5 75.5 -179.5v-976c0 -70 -25.167 -129.833 -75.5 -179.5s-111.166 -74.5 -182.499 -74.5h-968c-71.333 0 -132.166 24.833 -182.499 74.5s-75.5 109.5 -75.5 179.5v976
c0 70 25.167 129.833 75.5 179.5s111.166 74.5 182.499 74.5z" />
    <glyph glyph-name="multiply.uc.blacksquare" unicode="&#xd7;&#x20de;&#x25a0;" 
d="M900 817l-178 170l-91 -87l178 -171l-178 -169l91 -87l178 169l178 -169l91 87l-178 169l178 171l-91 87zM416 1464h968c71.333 0 132.166 -24.833 182.499 -74.5s75.5 -109.5 75.5 -179.5v-976c0 -70 -25.167 -129.833 -75.5 -179.5s-111.166 -74.5 -182.499 -74.5h-968
c-71.333 0 -132.166 24.833 -182.499 74.5s-75.5 109.5 -75.5 179.5v976c0 70 25.167 129.833 75.5 179.5s111.166 74.5 182.499 74.5z" />
    <glyph glyph-name="divide.uc.blacksquare" unicode="&#xf7;&#x20de;&#x25a0;" 
d="M808 953c0 -24.667 8.66699 -45 26 -61s39 -24 65 -24s48.167 8.16699 66.5 24.5s27.5 36.5 27.5 60.5c0 26 -9 47.167 -27 63.5s-40.333 24.5 -67 24.5c-26 0 -47.667 -8.16699 -65 -24.5s-26 -37.5 -26 -63.5zM1184 674v110h-568v-110h568zM808 510
c0 -24.667 8.83398 -45 26.501 -61s39.5 -24 65.5 -24s48 8.16699 66 24.5s27 36.5 27 60.5c0 26 -8.83301 47.167 -26.5 63.5s-39.834 24.5 -66.501 24.5c-26 0 -47.833 -8.16699 -65.5 -24.5s-26.5 -37.5 -26.5 -63.5zM416.001 1464h968
c71.333 0 132.166 -24.833 182.499 -74.5s75.5 -109.5 75.5 -179.5v-976c0 -70 -25.167 -129.833 -75.5 -179.5s-111.166 -74.5 -182.499 -74.5h-968c-71.333 0 -132.166 24.833 -182.499 74.5s-75.5 109.5 -75.5 179.5v976c0 70 25.167 129.833 75.5 179.5
s111.166 74.5 182.499 74.5z" />
    <glyph glyph-name="equal.uc.blacksquare" unicode="&#x3d;&#x20de;&#x25a0;" 
d="M1167 796v116h-534v-116h534zM1167 548v115h-534v-115h534zM416 1464h968c71.333 0 132.166 -24.833 182.499 -74.5s75.5 -109.5 75.5 -179.5v-976c0 -70 -25.167 -129.833 -75.5 -179.5s-111.166 -74.5 -182.499 -74.5h-968c-71.333 0 -132.166 24.833 -182.499 74.5
s-75.5 109.5 -75.5 179.5v976c0 70 25.167 129.833 75.5 179.5s111.166 74.5 182.499 74.5z" />
    <glyph glyph-name="greater.uc.blacksquare" unicode="&#x3e;&#x20de;&#x25a0;" 
d="M1188 770l-535 290v-145l368 -190l1 -1l-369 -179v-145l535 274v96zM416 1464h968c71.333 0 132.166 -24.833 182.499 -74.5s75.5 -109.5 75.5 -179.5v-976c0 -70 -25.167 -129.833 -75.5 -179.5s-111.166 -74.5 -182.499 -74.5h-968
c-71.333 0 -132.166 24.833 -182.499 74.5s-75.5 109.5 -75.5 179.5v976c0 70 25.167 129.833 75.5 179.5s111.166 74.5 182.499 74.5z" />
    <glyph glyph-name="less.uc.blacksquare" unicode="&#x3c;&#x20de;&#x25a0;" 
d="M604 674l534 -274v145l-367 179v1l367 190v145l-534 -290v-96zM416 1464h968c71.333 0 132.166 -24.833 182.499 -74.5s75.5 -109.5 75.5 -179.5v-976c0 -70 -25.167 -129.833 -75.5 -179.5s-111.166 -74.5 -182.499 -74.5h-968c-71.333 0 -132.166 24.833 -182.499 74.5
s-75.5 109.5 -75.5 179.5v976c0 70 25.167 129.833 75.5 179.5s111.166 74.5 182.499 74.5z" />
    <glyph glyph-name="numbersign.blacksquare" unicode="&#x23;&#x20de;&#x25a0;" 
d="M840 809h147l-34 -157h-146zM1217 805l22 108h-122l42 200h-117l-41 -200h-132l42 200h-117l-41 -200h-113l-22 -108h111l-30 -141h-116l-22 -110h114l-43 -206h117l44 206h132l-44 -206h117l43 206h117l23 110h-116l29 141h123zM416 1464h968
c71.333 0 132.166 -24.833 182.499 -74.5s75.5 -109.5 75.5 -179.5v-976c0 -70 -25.167 -129.833 -75.5 -179.5s-111.166 -74.5 -182.499 -74.5h-968c-71.333 0 -132.166 24.833 -182.499 74.5s-75.5 109.5 -75.5 179.5v976c0 70 25.167 129.833 75.5 179.5
s111.166 74.5 182.499 74.5z" />
    <glyph glyph-name="uni25BC.blacksquare" unicode="&#x25bc;&#x20de;&#x25a0;" 
d="M1246 975h-691l345 -599zM416 1464h968c71.333 0 132.166 -24.833 182.499 -74.5s75.5 -109.5 75.5 -179.5v-976c0 -70 -25.167 -129.833 -75.5 -179.5s-111.166 -74.5 -182.499 -74.5h-968c-71.333 0 -132.166 24.833 -182.499 74.5s-75.5 109.5 -75.5 179.5v976
c0 70 25.167 129.833 75.5 179.5s111.166 74.5 182.499 74.5z" />
    <glyph glyph-name="uni25B2.blacksquare" unicode="&#x25b2;&#x20de;&#x25a0;" 
d="M1246 493l-346 598l-345 -598h691zM416 1464h968c71.333 0 132.166 -24.833 182.499 -74.5s75.5 -109.5 75.5 -179.5v-976c0 -70 -25.167 -129.833 -75.5 -179.5s-111.166 -74.5 -182.499 -74.5h-968c-71.333 0 -132.166 24.833 -182.499 74.5s-75.5 109.5 -75.5 179.5
v976c0 70 25.167 129.833 75.5 179.5s111.166 74.5 182.499 74.5z" />
    <glyph glyph-name="uni25C0.blacksquare" unicode="&#x25c0;&#x20de;&#x25a0;" 
d="M1144 392v689l-599 -344zM416 1464h968c71.333 0 132.166 -24.833 182.499 -74.5s75.5 -109.5 75.5 -179.5v-976c0 -70 -25.167 -129.833 -75.5 -179.5s-111.166 -74.5 -182.499 -74.5h-968c-71.333 0 -132.166 24.833 -182.499 74.5s-75.5 109.5 -75.5 179.5v976
c0 70 25.167 129.833 75.5 179.5s111.166 74.5 182.499 74.5z" />
    <glyph glyph-name="uni25B6.blacksquare" unicode="&#x25b6;&#x20de;&#x25a0;" 
d="M656 392l599 345l-599 344v-689zM416 1464h968c71.333 0 132.166 -24.833 182.499 -74.5s75.5 -109.5 75.5 -179.5v-976c0 -70 -25.167 -129.833 -75.5 -179.5s-111.166 -74.5 -182.499 -74.5h-968c-71.333 0 -132.166 24.833 -182.499 74.5s-75.5 109.5 -75.5 179.5v976
c0 70 25.167 129.833 75.5 179.5s111.166 74.5 182.499 74.5z" />
    <glyph glyph-name="question.blacksquare" unicode="&#x3f;&#x20de;&#x25a0;" 
d="M779 429c0 -25.333 9.66797 -46.1641 29.001 -62.4971s43.666 -24.5 72.999 -24.5c30.667 0 55.5 8.16699 74.5 24.5s28.5 37.166 28.5 62.499c0 27.333 -9.5 49.166 -28.5 65.499s-43.833 24.5 -74.5 24.5c-30 0 -54.5 -8.33301 -73.5 -25s-28.5 -38.334 -28.5 -65.001z
M898.001 1134c-33.333 0 -64.832 -4.16504 -94.499 -12.498s-57.334 -21 -83.001 -38s-46 -40.667 -61 -71s-22.5 -65.5 -22.5 -105.5v-5h140c0 33.333 10 60.833 30 82.5s48.333 32.5 85 32.5c30.667 0 56.667 -7.83301 78 -23.5s32 -38.834 32 -69.501
c0 -16.667 -4.33301 -31.834 -13 -45.501s-17.834 -24.5 -27.501 -32.5s-25.167 -19.333 -46.5 -34c-36.667 -25.333 -64.167 -52 -82.5 -80s-26.5 -61.667 -24.5 -101v-41h137v34c0 28 5.83301 49.167 17.5 63.5s36.167 34.5 73.5 60.5c24.667 18 43.834 33 57.501 45
s27 30.5 40 55.5s19.5 52.5 19.5 82.5c0 64.667 -24.5 114.667 -73.5 150s-109.5 53 -181.5 53zM416.002 1464h968c71.333 0 132.166 -24.833 182.499 -74.5s75.5 -109.5 75.5 -179.5v-976c0 -70 -25.167 -129.833 -75.5 -179.5s-111.166 -74.5 -182.499 -74.5h-968
c-71.333 0 -132.166 24.833 -182.499 74.5s-75.5 109.5 -75.5 179.5v976c0 70 25.167 129.833 75.5 179.5s111.166 74.5 182.499 74.5z" />
    <glyph glyph-name="exclam.blacksquare" unicode="&#x21;&#x20de;&#x25a0;" 
d="M817 1118l17 -505h132l17 505h-166zM798 430c0 -24.667 9.5 -45.334 28.5 -62.001s43.5 -25 73.5 -25s54.5 8.33301 73.5 25s28.5 37.334 28.5 62.001c0 26.667 -9.5 48.167 -28.5 64.5s-43.5 24.5 -73.5 24.5s-54.5 -8.16699 -73.5 -24.5s-28.5 -37.833 -28.5 -64.5z
M416 1464h968c71.333 0 132.166 -24.833 182.499 -74.5s75.5 -109.5 75.5 -179.5v-976c0 -70 -25.167 -129.833 -75.5 -179.5s-111.166 -74.5 -182.499 -74.5h-968c-71.333 0 -132.166 24.833 -182.499 74.5s-75.5 109.5 -75.5 179.5v976c0 70 25.167 129.833 75.5 179.5
s111.166 74.5 182.499 74.5z" />
    <glyph glyph-name="uni2717.blacksquare" unicode="&#x2717;&#x20de;&#x25a0;" 
d="M527 1013l285 -287l-284 -284l92 -92l284 284l285 -284l90 92l-284 284l284 284l-90 91l-285 -285l-286 287zM416 1464h968c71.333 0 132.166 -24.833 182.499 -74.5s75.5 -109.5 75.5 -179.5v-976c0 -70 -25.167 -129.833 -75.5 -179.5s-111.166 -74.5 -182.499 -74.5
h-968c-71.333 0 -132.166 24.833 -182.499 74.5s-75.5 109.5 -75.5 179.5v976c0 70 25.167 129.833 75.5 179.5s111.166 74.5 182.499 74.5z" />
    <glyph glyph-name="uni2713.blacksquare" unicode="&#x2713;&#x20de;&#x25a0;" 
d="M764 377l600 599l-97 96l-504 -503l-218 217l-97 -96zM416 1464h968c71.333 0 132.166 -24.833 182.499 -74.5s75.5 -109.5 75.5 -179.5v-976c0 -70 -25.167 -129.833 -75.5 -179.5s-111.166 -74.5 -182.499 -74.5h-968c-71.333 0 -132.166 24.833 -182.499 74.5
s-75.5 109.5 -75.5 179.5v976c0 70 25.167 129.833 75.5 179.5s111.166 74.5 182.499 74.5z" />
    <glyph glyph-name=".notdef" horiz-adv-x="2048" 
d="M100 -494v284h1848v-284h-1848zM100 -62v284h1848v-284h-1848zM100 370v284h1848v-284h-1848zM100 802v284h1848v-284h-1848zM100 1234v284h1848v-284h-1848zM100 1666v284h1848v-284h-1848z" />
    <glyph glyph-name="space" unicode=" " horiz-adv-x="578" 
 />
    <glyph glyph-name="exclam" unicode="!" horiz-adv-x="637" 
d="M218 1444h200l-17 -964h-166zM319 -18c-40.667 0 -74 13 -100 39s-39 59.333 -39 100s13 74.167 39 100.5s59.333 39.5 100 39.5s73.834 -13 99.501 -39s38.5 -59.667 38.5 -101c0 -40.667 -12.833 -74 -38.5 -100s-58.834 -39 -99.501 -39z" />
    <glyph glyph-name="quotedbl" unicode="&#x22;" horiz-adv-x="895" 
d="M339 904h-160v539h160v-539zM716 904h-160v539h160v-539z" />
    <glyph glyph-name="numbersign" unicode="#" horiz-adv-x="1296" 
d="M663 0l82 403h-328l-82 -403h-142l81 403h-234l28 144h237l73 364h-247l29 143h247l81 389h142l-78 -389h326l81 389h143l-80 -389h249l-28 -143h-251l-75 -364h261l-28 -144h-262l-82 -403h-143zM445 544h330l75 369h-330z" />
    <glyph glyph-name="dollar" unicode="$" horiz-adv-x="1328" 
d="M732 -137l-134 0.00195312v134c-135.333 10 -243.666 51.167 -324.999 123.5s-122.333 163.833 -123 274.5h171c5.33301 -66.667 32.333 -121.334 81 -164.001s114 -69 196 -79v520l-80 22c-107.333 28.667 -189.666 75 -246.999 139s-86 142 -86 234
c0 108.667 37 198.167 111 268.5s174.667 111.833 302 124.5v140h134v-139c124 -10.667 224.167 -51.5 300.5 -122.5s116.166 -160.833 119.499 -269.5h-170c-2 62.667 -25.833 115.667 -71.5 159s-105.167 69.333 -178.5 78v-489l86 -21
c123.333 -32.667 214.166 -80.5 272.499 -143.5s87.5 -144.5 87.5 -244.5c0 -118.667 -39 -213.834 -117 -285.501s-187.667 -113.167 -329 -124.5v-135zM1005 394.002c0 66.667 -22.001 120.166 -66.001 160.499s-113 70.5 -207 90.5v-496
c86.667 4.66699 153.834 28.334 201.501 71.001s71.5 100.667 71.5 174zM356.999 1077c0 -59.333 20.5 -108.5 61.5 -147.5s100.833 -66.833 179.5 -83.5v460c-70 -4 -127.667 -27.5 -173 -70.5s-68 -95.833 -68 -158.5z" />
    <glyph glyph-name="percent" unicode="%" horiz-adv-x="1610" 
d="M695 1121c0 -102 -28.667 -185.5 -86 -250.5s-131 -97.5 -221 -97.5s-163.833 32.5 -221.5 97.5s-86.5 148.5 -86.5 250.5c0 101.333 28.833 184.5 86.5 249.5s131.5 97.5 221.5 97.5s163.667 -32.333 221 -97s86 -148 86 -250zM388 901
c44 0 79.499 20.1689 106.499 60.502s40.5 93.5 40.5 159.5c0 67.333 -13.167 120.666 -39.5 159.999s-62.166 59 -107.499 59c-44.667 0 -80.5 -19.833 -107.5 -59.5s-40.5 -92.834 -40.5 -159.501s13.5 -120 40.5 -160s62.833 -60 107.5 -60zM371.999 0.00195312h-184
l551 752l506 691h182l-560 -766zM1530 323.002c0 -102 -28.667 -185.5 -86 -250.5s-131 -97.5 -221 -97.5s-163.833 32.5 -221.5 97.5s-86.5 148.5 -86.5 250.5c0 101.333 28.833 184.5 86.5 249.5s131.5 97.5 221.5 97.5s163.667 -32.333 221 -97s86 -148 86 -250z
M1223 103.002c44 0 79.499 20.1689 106.499 60.502s40.5 93.5 40.5 159.5c0 67.333 -13.167 120.666 -39.5 159.999s-62.166 59 -107.499 59c-44.667 0 -80.5 -19.833 -107.5 -59.5s-40.5 -92.834 -40.5 -159.501s13.5 -120 40.5 -160s62.833 -60 107.5 -60z" />
    <glyph glyph-name="ampersand" unicode="&#x26;" horiz-adv-x="1457" 
d="M1203 0l-133 144c-62 -54 -133.5 -96 -214.5 -126s-165.167 -45 -252.5 -45c-143.333 0 -260.5 38.333 -351.5 115s-136.5 175.667 -136.5 297c0 168 95.333 302.333 286 403l16 8l22.5 11c8.33301 4 14.166 7 17.499 9c-66 69.333 -112.667 129.833 -140 181.5
s-41 103.834 -41 156.501c0 92.667 35 169.667 105 231s157.667 92 263 92c106.667 0 194.667 -30.5 264 -91.5s104 -138.833 104 -233.5c0 -74 -24.167 -140 -72.5 -198s-128.166 -116.333 -239.499 -175l361 -388c45.333 90.667 68 220 68 388v25h168v-26
c0 -216.667 -39.667 -386.334 -119 -509.001l251 -269h-226zM505 682c-140 -72.667 -210 -167.666 -210 -284.999c0 -81.333 29.833 -147 89.5 -197s137.834 -75 234.501 -75c66 0 130.167 12.167 192.5 36.5s113.166 57.166 152.499 98.499l-408 446
c-7.33301 -2.66699 -24.333 -10.667 -51 -24zM603 881.001c88 44.667 150.001 87 186.001 127s54 86 54 138c0 56 -18.333 101.333 -55 136s-84.334 52 -143.001 52c-57.333 0 -104.5 -17.667 -141.5 -53s-55.5 -81 -55.5 -137c0 -40 11.667 -79.667 35 -119
s63.333 -87.333 120 -144z" />
    <glyph glyph-name="quotesingle" unicode="'" horiz-adv-x="518" 
d="M339 904h-160v539h160v-539z" />
    <glyph glyph-name="parenleft" unicode="(" horiz-adv-x="782" 
d="M242 600c0 353.333 94.667 655.332 284 905.999h146c-71.333 -92 -131.333 -224 -180 -396s-73 -342 -73 -510c0 -168.667 24.167 -339.167 72.5 -511.5s108.5 -304.166 180.5 -395.499h-146c-189.333 250.667 -284 553 -284 907z" />
    <glyph glyph-name="parenright" unicode=")" horiz-adv-x="782" 
d="M540 600c0 -354 -94.667 -656.332 -284 -906.999h-146c72 91.333 132.167 223.166 180.5 395.499s72.5 342.833 72.5 511.5c0 168 -24.333 338 -73 510s-108.667 304 -180 396h146c189.333 -250.667 284 -552.667 284 -906z" />
    <glyph glyph-name="asterisk" unicode="*" horiz-adv-x="1032" 
d="M812 815l-244 158l16 -289h-136l16 290l-244 -159l-67 116l260 131l-260 132l67 118l244 -163l-16 294h136l-16 -294l244 163l67 -118l-259 -132l259 -131z" />
    <glyph glyph-name="plus" unicode="+" horiz-adv-x="1328" 
d="M738 506v-435h-148v435h-435v148h435v435h148v-435h435v-148h-435z" />
    <glyph glyph-name="comma" unicode="," horiz-adv-x="608" 
d="M271 -367h-129l95 569h191z" />
    <glyph glyph-name="hyphen" unicode="&#x2011;" horiz-adv-x="966" 
d="M811 499h-656v163h656v-163z" />
    <glyph glyph-name="hyphen" unicode="-" horiz-adv-x="966" 
d="M811 499h-656v163h656v-163z" />
    <glyph glyph-name="period" unicode="." horiz-adv-x="608" 
d="M304 -10c-35.333 0 -65.833 12.833 -91.5 38.5s-38.5 56.167 -38.5 91.5c0 36 12.833 66.667 38.5 92s56.167 38 91.5 38c36 0 66.667 -12.667 92 -38s38 -56 38 -92c0 -35.333 -12.667 -65.833 -38 -91.5s-56 -38.5 -92 -38.5z" />
    <glyph glyph-name="slash" unicode="/" horiz-adv-x="682" 
d="M152 -307h-152l530 1813h152z" />
    <glyph glyph-name="zero" unicode="0" horiz-adv-x="1290" 
d="M646 -34c-162.667 0 -288.668 65.999 -378.001 197.999s-134 318 -134 558c0 238 45 423.333 135 556s215.667 199 377 199c160.667 0 285.834 -66.667 375.501 -200s134.5 -319.333 134.5 -558c0 -239.333 -44.5 -424.666 -133.5 -555.999s-214.5 -197 -376.5 -197z
M645.999 122.999c106.667 0 188.167 51.502 244.5 154.502s84.5 251.167 84.5 444.5c0 191.333 -28.5 338.666 -85.5 441.999s-138.167 155 -243.5 155s-186.833 -51.833 -244.5 -155.5s-86.5 -250.834 -86.5 -441.501c0 -192.667 28.5 -340.667 85.5 -444
s138.833 -155 245.5 -155z" />
    <glyph glyph-name="one" unicode="1" horiz-adv-x="955" 
d="M506 0v1243h-16l-367 -266v190l384 276h179v-1443h-180z" />
    <glyph glyph-name="two" unicode="2" horiz-adv-x="1237" 
d="M152 1037c0 128 43.498 233.334 130.498 316.001s197.5 124 331.5 124c129.333 0 237.833 -38.833 325.5 -116.5s131.5 -173.834 131.5 -288.501c0 -75.333 -21.333 -149.333 -64 -222s-123 -172.334 -241 -299.001l-347 -373v-16h676v-162h-934v124l499 545
c92.667 100.667 154.334 177.334 185.001 230.001s46 108 46 166c0 72 -27.167 132.5 -81.5 181.5s-121.166 73.5 -200.499 73.5c-84.667 0 -153 -26 -205 -78s-78 -120.333 -78 -205v-1h-174v1z" />
    <glyph glyph-name="three" unicode="3" horiz-adv-x="1284" 
d="M456 665l-0.000976562 154.002h175c82 0 149.167 24 201.5 72s78.5 109.333 78.5 184c0 73.333 -25.333 132.5 -76 177.5s-117.667 67.5 -201 67.5s-150.666 -21.833 -201.999 -65.5s-80.666 -104.167 -87.999 -181.5h-175c9.33301 125.333 56 224 140 296
s194.667 108 332 108c82.667 0 158.834 -16.833 228.501 -50.5s124.5 -79.5 164.5 -137.5s60 -121.333 60 -190c0 -86 -22.333 -158.667 -67 -218s-106.667 -98.666 -186 -117.999v-16c98 -12.667 175 -50.834 231 -114.501s84 -144.834 84 -243.501
c0 -118.667 -49 -218.834 -147 -300.501s-218.333 -122.5 -361 -122.5c-146.667 0 -266.334 37.5 -359.001 112.5s-142.334 174.167 -149.001 297.5h174c8 -76.667 42 -138 102 -184s136.667 -69 230 -69c94.667 0 172.5 25.333 233.5 76s91.5 115.667 91.5 195
c0 83.333 -29.667 149.333 -89 198s-140.333 73 -243 73h-183z" />
    <glyph glyph-name="four" unicode="4" horiz-adv-x="1318" 
d="M820 0v298.999h-703v164c132 234.667 338 561.334 618 980.001h261v-983h205v-161h-205v-299h-176zM301 470.999v-12h520v817h-12c-156 -226.667 -325.333 -495 -508 -805z" />
    <glyph glyph-name="five" unicode="5" horiz-adv-x="1267" 
d="M637 -34c-136.667 0 -249.668 38.4971 -339.001 115.497s-138 177.833 -146 302.5h177c8 -78 40.5 -140.833 97.5 -188.5s127.833 -71.5 212.5 -71.5c96.667 0 174.5 30.333 233.5 91s88.5 140.334 88.5 239.001s-29.5 178.834 -88.5 240.501s-135.833 92.5 -230.5 92.5
c-65.333 0 -124 -14.167 -176 -42.5s-92.667 -68.166 -122 -119.499h-169l79 818h805v-161h-664l-41 -463h16c70 82 171.667 123 305 123c137.333 0 249.333 -45 336 -135s130 -206 130 -348c0 -146.667 -46.667 -265.5 -140 -356.5s-214.666 -136.5 -363.999 -136.5z" />
    <glyph glyph-name="six" unicode="6" horiz-adv-x="1305" 
d="M671 -33c-108.667 0 -203.331 28.167 -283.998 84.5s-143.667 137.5 -189 243.5c-46.667 109.333 -70 243.333 -70 402c0 248 48.333 440 145 576s233.334 204 410.001 204c122.667 0 226.5 -33.833 311.5 -101.5s138.833 -159.5 161.5 -275.5h-185
c-19.333 67.333 -54.833 120.333 -106.5 159s-112.834 58 -183.501 58c-117.333 0 -208.5 -50.667 -273.5 -152s-99.833 -248 -104.5 -440h16c35.333 70 86.666 124.5 153.999 163.5s144 58.5 230 58.5c137.333 0 250.666 -45.5 339.999 -136.5s134 -206.5 134 -346.5
c0 -145.333 -47.333 -264.5 -142 -357.5s-216 -139.5 -364 -139.5zM669.003 125c92.667 0 170.166 31.8311 232.499 95.498s93.5 142.834 93.5 237.501c0 98.667 -30.167 178.834 -90.5 240.501s-138.166 92.5 -233.499 92.5s-173.833 -30.667 -235.5 -92
s-92.5 -139.666 -92.5 -234.999c0 -96.667 31.167 -177.334 93.5 -242.001s139.833 -97 232.5 -97z" />
    <glyph glyph-name="seven" unicode="7" horiz-adv-x="1167" 
d="M221 0l648 1268v14h-772v161h955v-167l-642 -1276h-189z" />
    <glyph glyph-name="eight" unicode="8" horiz-adv-x="1308" 
d="M654 -34c-152.667 0 -277.502 39.166 -374.502 117.499s-145.5 179.166 -145.5 302.499c0 94 27.333 174.667 82 242s127.334 109.333 218.001 126v16c-73.333 20 -131.833 59 -175.5 117s-65.5 126.333 -65.5 205c0 112.667 43.167 205 129.5 277s196.833 108 331.5 108
s245.167 -36 331.5 -108s129.5 -164.333 129.5 -277c0 -79.333 -21.5 -147.666 -64.5 -204.999s-101.833 -96.333 -176.5 -117v-16c90.667 -16.667 163.334 -58.667 218.001 -126s82 -148 82 -242c0 -123.333 -48.5 -224.166 -145.5 -302.499s-221.833 -117.5 -374.5 -117.5
zM653.998 119.999c100 0 181.333 25.833 244 77.5s94 118.834 94 201.501s-31.333 149.834 -94 201.501s-144 77.5 -244 77.5s-181.333 -25.833 -244 -77.5s-94 -118.834 -94 -201.501s31.333 -149.834 94 -201.501s144 -77.5 244 -77.5zM653.998 829.999
c85.333 0 154 22.5 206 67.5s78 104.167 78 177.5c0 74.667 -26 134.667 -78 180s-120.667 68 -206 68s-154 -22.667 -206 -68s-78 -105.333 -78 -180c0 -73.333 26 -132.5 78 -177.5s120.667 -67.5 206 -67.5z" />
    <glyph glyph-name="nine" unicode="9" horiz-adv-x="1305" 
d="M622 -33c-122.667 0 -226.502 33.833 -311.502 101.5s-138.833 159.5 -161.5 275.5h185c19.333 -67.333 54.833 -120.333 106.5 -159s112.834 -58 183.501 -58c117.333 0 208.5 50.667 273.5 152s99.833 248 104.5 440h-8h-4h-4
c-35.333 -70 -86.666 -124.5 -153.999 -163.5s-144 -58.5 -230 -58.5c-137.333 0 -250.666 45.5 -339.999 136.5s-134 206.5 -134 346.5c0 145.333 47.333 264.5 142 357.5s216 139.5 364 139.5c108 0 202.667 -28 284 -84s144.333 -137.333 189 -244
c46.667 -109.333 70 -243.333 70 -402c0 -248 -48.333 -440 -145 -576s-233.334 -204 -410.001 -204zM633.998 653c95.333 0 173.834 30.6689 235.501 92.002s92.5 139.666 92.5 234.999c0 96.667 -31.167 177.334 -93.5 242.001s-139.833 97 -232.5 97
s-170.167 -31.833 -232.5 -95.5s-93.5 -142.834 -93.5 -237.501c0 -98.667 30.167 -178.834 90.5 -240.501s138.166 -92.5 233.499 -92.5z" />
    <glyph glyph-name="colon" unicode=":" horiz-adv-x="608" 
d="M304 -10c-35.333 0 -65.833 12.833 -91.5 38.5s-38.5 56.167 -38.5 91.5c0 36 12.833 66.667 38.5 92s56.167 38 91.5 38c36 0 66.667 -12.667 92 -38s38 -56 38 -92c0 -35.333 -12.667 -65.833 -38 -91.5s-56 -38.5 -92 -38.5zM304 759
c-35.333 0 -65.833 12.833 -91.5 38.5s-38.5 56.167 -38.5 91.5c0 36 12.833 66.667 38.5 92s56.167 38 91.5 38c36 0 66.667 -12.667 92 -38s38 -56 38 -92c0 -35.333 -12.667 -65.833 -38 -91.5s-56 -38.5 -92 -38.5z" />
    <glyph glyph-name="semicolon" unicode=";" horiz-adv-x="608" 
d="M304 759c-35.333 0 -65.833 12.833 -91.5 38.5s-38.5 56.167 -38.5 91.5c0 36 12.833 66.667 38.5 92s56.167 38 91.5 38c36 0 66.667 -12.667 92 -38s38 -56 38 -92c0 -35.333 -12.667 -65.833 -38 -91.5s-56 -38.5 -92 -38.5zM246 -367h-129l95 569h191z" />
    <glyph glyph-name="less" unicode="&#x3c;" horiz-adv-x="1328" 
d="M1104 991l-708 -386v-16l708 -386v-186l-880 509v142l880 509v-186z" />
    <glyph glyph-name="equal" unicode="=" horiz-adv-x="1328" 
d="M1168 312h-1008v149h1008v-149zM1168 700h-1008v149h1008v-149z" />
    <glyph glyph-name="greater" unicode="&#x3e;" horiz-adv-x="1328" 
d="M224 991v186l880 -509v-142l-880 -509v186l708 386v16z" />
    <glyph glyph-name="question" unicode="?" horiz-adv-x="1050" 
d="M80 1066c6 114 46.502 207.165 121.502 279.498s179.833 108.5 314.5 108.5c124.667 0 226.5 -34.333 305.5 -103s118.5 -155 118.5 -259c0 -146 -69.667 -261 -209 -345c-62.667 -37.333 -105.5 -72.666 -128.5 -105.999s-34.5 -76.666 -34.5 -129.999v-65h-175v92
c-0.666992 65.333 15.166 122 47.499 170s83.166 92.667 152.499 134c58.667 36 100.167 72 124.5 108s36.5 80.333 36.5 133c0 62.667 -22.5 114.167 -67.5 154.5s-104.167 60.5 -177.5 60.5c-75.333 0 -135.833 -20.667 -181.5 -62s-71.167 -98 -76.5 -170h-171z
M494.002 -18.002c-40.667 0 -74 13 -100 39s-39 59.333 -39 100s13 74.167 39 100.5s59.333 39.5 100 39.5s73.834 -13 99.501 -39s38.5 -59.667 38.5 -101c0 -40.667 -12.833 -74 -38.5 -100s-58.834 -39 -99.501 -39z" />
    <glyph glyph-name="at" unicode="@" horiz-adv-x="1880" 
d="M934 875c-66.667 0 -118.834 -24.667 -156.501 -74s-56.5 -117.666 -56.5 -204.999c0 -86.667 18.833 -155 56.5 -205s89.167 -75 154.5 -75c68.667 0 123.334 25.333 164.001 76s61 118.667 61 204s-20.167 153.166 -60.5 203.499s-94.5 75.5 -162.5 75.5zM969 1435
c156 0 294.827 -31.0029 416.494 -93.0029s216.334 -148.833 284.001 -260.5s101.5 -239.167 101.5 -382.5c0 -163.333 -34 -293 -102 -389s-159.333 -144 -274 -144c-58.667 0 -108.5 15.667 -149.5 47s-64.5 71.666 -70.5 120.999h-16
c-21.333 -50.667 -53.666 -89.834 -96.999 -117.501s-94.333 -41.5 -153 -41.5c-104 0 -188 39 -252 117s-96 180.667 -96 308c0 121.333 32.333 220.5 97 297.5s148.334 115.5 251.001 115.5c52.667 0 100 -12.667 142 -38s72.667 -59.666 92 -102.999h16v122h151v-587
c0 -35.333 9.83301 -62.666 29.5 -81.999s47.5 -29 83.5 -29c62.667 0 112.834 36.667 150.501 110s56.5 171.666 56.5 294.999c0 119.333 -28.167 225 -84.5 317s-135.666 163.5 -237.999 214.5s-219.5 76.5 -351.5 76.5c-128.667 0 -244.167 -30.333 -346.5 -91
s-182.166 -145.5 -239.499 -254.5s-86 -231.833 -86 -368.5c0 -213.333 63.833 -383.666 191.5 -510.999s298.5 -191 512.5 -191c68.667 0 133.834 4.33301 195.501 13s108.167 20.334 139.5 35.001v-126c-94.667 -32.667 -207 -49 -337 -49c-258 0 -463 75.333 -615 226
s-228 353.667 -228 609c0 122 20.167 234.833 60.5 338.5s96.5 191.834 168.5 264.501s159.167 129.334 261.5 170.001s214.166 61 335.499 61z" />
    <glyph glyph-name="A" unicode="A" horiz-adv-x="1380" 
d="M1122 0l-145 413h-574l-145 -413h-189l532 1443h178l532 -1443h-189zM682 1210l-226 -644h468l-226 644h-16z" />
    <glyph glyph-name="B" unicode="B" horiz-adv-x="1346" 
d="M747 0h-563.002v1443h552c132 0 236.167 -32.333 312.5 -97s114.5 -152.334 114.5 -263.001c0 -74.667 -24.167 -142 -72.5 -202s-107.166 -96.333 -176.499 -109v-16c98.667 -12.667 177 -50.5 235 -113.5s87 -142.167 87 -237.5
c0 -127.333 -43.167 -226.666 -129.5 -297.999s-206.166 -107 -359.499 -107zM363.998 1284v-463h288c219.333 0 329 77 329 231c0 73.333 -24.833 130.333 -74.5 171s-119.167 61 -208.5 61h-334zM363.998 159l356 0.000976562c108.667 0 191 21.667 247 65
s84 106.666 84 189.999c0 168 -116 252 -348 252h-339v-507z" />
    <glyph glyph-name="C" unicode="C" horiz-adv-x="1466" 
d="M765 -34c-196 0 -351.169 67.668 -465.502 203.001s-171.5 319.333 -171.5 552s57 416.834 171 552.501s269 203.5 465 203.5c152 0 282 -43.333 390 -130s172.667 -199.667 194 -339h-183c-24 93.333 -72 167.166 -144 221.499s-157.667 81.5 -257 81.5
c-138.667 0 -248.5 -53 -329.5 -159s-121.5 -249.667 -121.5 -431s40.667 -324.833 122 -430.5s191.333 -158.5 330 -158.5c100.667 0 186.834 24.167 258.501 72.5s118.834 114.166 141.501 197.499h183c-24 -132.667 -88.833 -238.5 -194.5 -317.5
s-235.167 -118.5 -388.5 -118.5z" />
    <glyph glyph-name="D" unicode="D" horiz-adv-x="1487" 
d="M184 1443h495.001c214 0 381 -63.5 501 -190.5s180 -303.833 180 -530.5c0 -227.333 -59.833 -404.5 -179.5 -531.5s-286.834 -190.5 -501.501 -190.5h-495v1443zM364.001 1281v-1119h303c160.667 0 285.667 49 375 147s134 235 134 411
c0 176.667 -44.833 314.334 -134.5 413.001s-214.5 148 -374.5 148h-303z" />
    <glyph glyph-name="E" unicode="E" horiz-adv-x="1220" 
d="M1078 162v-162h-894v1443h894v-162h-714v-463h677v-160h-677v-496h714z" />
    <glyph glyph-name="F" unicode="F" horiz-adv-x="1172" 
d="M364 0h-180v1443h876v-162h-696v-496h639v-160h-639v-625z" />
    <glyph glyph-name="G" unicode="G" horiz-adv-x="1529" 
d="M1395 558c0 -178 -56.001 -321.168 -168.001 -429.501s-260.333 -162.5 -445 -162.5c-199.333 0 -358.166 68.333 -476.499 205s-177.5 320.334 -177.5 551.001c0 228 59.667 410.833 179 548.5s277.666 206.5 474.999 206.5c160 0 294.167 -41.667 402.5 -125
s175.5 -196.333 201.5 -339h-183c-31.333 97.333 -82.666 171.333 -153.999 222s-160.333 76 -267 76c-142.667 0 -256.5 -53.333 -341.5 -160s-127.5 -249.667 -127.5 -429c0 -182 42.167 -325.833 126.5 -431.5s198.833 -158.5 343.5 -158.5
c129.333 0 233.833 37.667 313.5 113s119.5 174 119.5 296v35h-406v158h585v-176z" />
    <glyph glyph-name="H" unicode="H" horiz-adv-x="1520" 
d="M1336 0h-180v657h-792v-657h-180v1443h180v-624h792v624h180v-1443z" />
    <glyph glyph-name="I" unicode="I" horiz-adv-x="548" 
d="M364 0h-180v1443h180v-1443z" />
    <glyph glyph-name="J" unicode="J" horiz-adv-x="1102" 
d="M86 337h179.001c2 -60.667 24.333 -110 67 -148s97.667 -57 165 -57c77.333 0 136.833 23.167 178.5 69.5s62.5 113.5 62.5 201.5v1040h180v-1041c0 -137.333 -37.333 -244.333 -112 -321s-177.334 -115 -308.001 -115c-121.333 0 -220.333 34.333 -297 103
s-115 158 -115 268z" />
    <glyph glyph-name="K" unicode="K" horiz-adv-x="1349" 
d="M364 0h-180v1443h180v-701h16l632 701h226l-577 -623l630 -820h-233l-521 695l-173 -191v-504z" />
    <glyph glyph-name="L" unicode="L" horiz-adv-x="1163" 
d="M1060 162v-162h-876v1443h180v-1281h696z" />
    <glyph glyph-name="M" unicode="M" horiz-adv-x="1790" 
d="M1606 0h-168v1102h-12l-455 -1092h-152l-455 1092h-12v-1102h-168v1443h209l494 -1194h16l494 1194h209v-1443z" />
    <glyph glyph-name="N" unicode="N" horiz-adv-x="1520" 
d="M362 0h-178v1443h175l783 -1123h16v1123h178v-1443h-175l-783 1119h-16v-1119z" />
    <glyph glyph-name="O" unicode="O" horiz-adv-x="1579" 
d="M791 1477c204.667 0 365.834 -67.833 483.501 -203.5s176.5 -319.5 176.5 -551.5s-58.833 -416 -176.5 -552s-278.834 -204 -483.501 -204c-206 0 -368 68 -486 204s-177 320 -177 552s59.5 415.833 178.5 551.5s280.5 203.5 484.5 203.5zM791 1311
c-146.667 0 -263 -53 -349 -159s-129 -249.333 -129 -430s42.5 -324.167 127.5 -430.5s201.833 -159.5 350.5 -159.5c147.333 0 263.333 53.333 348 160s127 250 127 430c0 181.333 -42.333 324.833 -127 430.5s-200.667 158.5 -348 158.5z" />
    <glyph glyph-name="P" unicode="P" horiz-adv-x="1301" 
d="M184 1443h544.999c136.667 0 247.834 -43.5 333.501 -130.5s128.5 -199.167 128.5 -336.5c0 -134.667 -43.5 -245.167 -130.5 -331.5s-198.167 -129.5 -333.5 -129.5h-363v-515h-180v1443zM363.999 1283v-608h318c102.667 0 182.334 26.333 239.001 79s85 126.667 85 222
c0 99.333 -27.833 175.333 -83.5 228s-135.834 79 -240.501 79h-318z" />
    <glyph glyph-name="Q" unicode="Q" horiz-adv-x="1579" 
d="M791 -34c-205.333 0 -367.168 67.333 -485.501 202s-177.5 319 -177.5 553c0 232.667 59.5 416.834 178.5 552.501s280.5 203.5 484.5 203.5c202.667 0 363.334 -67.833 482.001 -203.5s178 -319.834 178 -552.501c0 -143.333 -22.167 -269.333 -66.5 -378
s-107.5 -192.667 -189.5 -252l183 -254h-202l-127 173c-78 -29.333 -164 -44 -258 -44zM791.998 132c54 0 105.333 7.33301 154 22l-191 259h204l131 -174c56.667 45.333 100.167 109.5 130.5 192.5s45.5 179.5 45.5 289.5c0 181.333 -42.667 325 -128 431
s-201 159 -347 159c-147.333 0 -263.833 -53 -349.5 -159s-128.5 -249.667 -128.5 -431c0 -182 42.833 -325.667 128.5 -431s202.5 -158 350.5 -158z" />
    <glyph glyph-name="R" unicode="R" horiz-adv-x="1338" 
d="M364 1283v-552.002h355c92.667 0 164.167 23.833 214.5 71.5s75.5 115.834 75.5 204.501c0 86.667 -26.333 154.334 -79 203.001s-125.667 73 -219 73h-347zM364 570.998v-571h-180v1443h551c139.333 0 250.833 -39.167 334.5 -117.5s125.5 -182.5 125.5 -312.5
c0 -100.667 -25.667 -187.667 -77 -261s-122.333 -124.333 -213 -153l334 -599h-211l-309 571h-355z" />
    <glyph glyph-name="S" unicode="S" horiz-adv-x="1305" 
d="M115 377h182c11.333 -75.333 50.333 -135.333 117 -180s151.334 -67 254.001 -67c97.333 0 177.833 23.5 241.5 70.5s95.5 106.167 95.5 177.5c0 61.333 -23.333 112.166 -70 152.499s-119.667 73.166 -219 98.499l-185 48c-130.667 32.667 -225.667 80 -285 142
s-89 144.333 -89 247c0 122.667 46.833 221.834 140.5 297.501s216.834 113.5 369.501 113.5c139.333 0 256 -37.333 350 -112s144.667 -170.334 152 -287.001h-181c-12.667 74 -47.834 131.833 -105.501 173.5s-131.5 62.5 -221.5 62.5
c-96 0 -173.167 -22.167 -231.5 -66.5s-87.5 -102.833 -87.5 -175.5c0 -56.667 21.5 -102.667 64.5 -138s114.167 -65.666 213.5 -90.999l151 -40c149.333 -37.333 256.5 -87.333 321.5 -150s97.5 -147 97.5 -253c0 -132.667 -48.667 -238.167 -146 -316.5
s-228.333 -117.5 -393 -117.5c-152.667 0 -277.834 37.333 -375.501 112s-151.167 174.334 -160.5 299.001z" />
    <glyph glyph-name="T" unicode="T" horiz-adv-x="1298" 
d="M739 0h-180v1281h-465v162h1110v-162h-465v-1281z" />
    <glyph glyph-name="U" unicode="U" horiz-adv-x="1524" 
d="M369 1443l-0.00195312 -935c0 -111.333 34.833 -201.833 104.5 -271.5s165.834 -104.5 288.501 -104.5s218.834 34.833 288.501 104.5s104.5 160.167 104.5 271.5v935h180v-947c0 -156.667 -51.5 -284.167 -154.5 -382.5s-242.5 -147.5 -418.5 -147.5
s-315.5 49.167 -418.5 147.5s-154.5 225.833 -154.5 382.5v947h180z" />
    <glyph glyph-name="V" unicode="V" horiz-adv-x="1380" 
d="M779 0h-178l-532 1443h189l424 -1210h16l424 1210h189z" />
    <glyph glyph-name="W" unicode="W" horiz-adv-x="1982" 
d="M985 1139l-332 -1139h-170l-393 1443h188l287 -1173h12l323 1173h182l323 -1173h12l287 1173h188l-393 -1443h-170l-332 1139h-12z" />
    <glyph glyph-name="X" unicode="X" horiz-adv-x="1390" 
d="M90 0l494 726l-488 717h217l380 -574h16l386 574h205l-500 -725l489 -718h-216l-378 569h-16l-385 -569h-204z" />
    <glyph glyph-name="Y" unicode="Y" horiz-adv-x="1344" 
d="M762 0h-180v621l-512 822h205l389 -641h16l389 641h205l-512 -822v-621z" />
    <glyph glyph-name="Z" unicode="Z" horiz-adv-x="1355" 
d="M144 0v128l817 1137v16h-789v162h1022v-128l-813 -1137v-16h830v-162h-1067z" />
    <glyph glyph-name="bracketleft" unicode="[" horiz-adv-x="782" 
d="M268 1506h434v-136h-266v-1541h266v-136h-434v1813z" />
    <glyph glyph-name="backslash" unicode="\" horiz-adv-x="682" 
d="M530 -307l-530 1813h152l530 -1813h-152z" />
    <glyph glyph-name="bracketright" unicode="]" horiz-adv-x="782" 
d="M514 1506v-1813h-434v136h266v1541h-266v136h434z" />
    <glyph glyph-name="asciicircum" unicode="^" horiz-adv-x="984" 
d="M484 1280l-220 -500h-163l296 639h190l296 -639h-163l-220 500h-16z" />
    <glyph glyph-name="underscore" unicode="_" horiz-adv-x="916" 
d="M926 -235h-936v128h936v-128z" />
    <glyph glyph-name="grave" unicode="`" horiz-adv-x="1093" 
d="M782 1263h-194l-278 338h220z" />
    <glyph glyph-name="a" unicode="a" horiz-adv-x="1130" 
d="M494 132c88.667 0 162.167 25.6689 220.5 77.002s87.5 115.666 87.5 192.999v99l-290 -19c-81.333 -5.33301 -141 -22.333 -179 -51s-57 -70.334 -57 -125.001c0 -54 20.333 -96.5 61 -127.5s93 -46.5 157 -46.5zM462 -18.998c-106 0 -193.166 29.168 -261.499 87.501
s-102.5 136.166 -102.5 233.499c0 96 34 171.333 102 226s165 85.667 291 93l311 19v98c0 66.667 -20.667 117.667 -62 153s-102 53 -182 53c-64.667 0 -118.334 -11.667 -161.001 -35s-70 -56.333 -82 -99h-174c11.333 86 55.833 155.333 133.5 208s174.167 79 289.5 79
c130.667 0 231.667 -31.667 303 -95s107 -151.333 107 -264v-738h-164v159h-16c-34.667 -57.333 -80.667 -101.333 -138 -132s-122 -46 -194 -46z" />
    <glyph glyph-name="b" unicode="b" horiz-adv-x="1258" 
d="M698 -19c-74.667 0 -142.5 16.833 -203.5 50.5s-108.5 80.5 -142.5 140.5h-16v-172h-164v1506h172v-598h16c29.333 58 74.5 104 135.5 138s128.5 51 202.5 51c137.333 0 247 -50.667 329 -152s123 -236.666 123 -405.999c0 -168.667 -41.167 -303.834 -123.5 -405.501
s-191.833 -152.5 -328.5 -152.5zM658 942c-98 0 -175.5 -36 -232.5 -108s-85.5 -170.333 -85.5 -295s28.5 -223 85.5 -295s134.5 -108 232.5 -108c98.667 0 175.667 35.667 231 107s83 170 83 296s-27.667 224.667 -83 296s-132.333 107 -231 107z" />
    <glyph glyph-name="c" unicode="c" horiz-adv-x="1146" 
d="M1054 748l-174.001 -0.000976562c-14.667 56.667 -46.167 103.167 -94.5 139.5s-109.5 54.5 -183.5 54.5c-96.667 0 -173.5 -36 -230.5 -108s-85.5 -169 -85.5 -291c0 -124 28.667 -222.833 86 -296.5s134 -110.5 230 -110.5c72.667 0 133.167 16.333 181.5 49
s80.5 79.334 96.5 140.001h174c-16 -102 -63.667 -184.833 -143 -248.5s-182 -95.5 -308 -95.5c-151.333 0 -271.666 50.833 -360.999 152.5s-134 238.167 -134 409.5c0 168 44.667 302.333 134 403s209.333 151 360 151c126 0 228.833 -33 308.5 -99
s127.5 -149.333 143.5 -250z" />
    <glyph glyph-name="d" unicode="d" horiz-adv-x="1258" 
d="M561 -19c-138 0 -247.999 50.668 -329.999 152.001s-123 236.666 -123 405.999c0 168.667 41.167 303.834 123.5 405.501s192.166 152.5 329.499 152.5c75.333 0 142.833 -16.833 202.5 -50.5s104.834 -79.834 135.501 -138.501h15v598h172v-1506h-164v172h-16
c-34 -60 -81.333 -106.833 -142 -140.5s-128.334 -50.5 -203.001 -50.5zM601.001 942.001c-98 0 -175.001 -35.833 -231.001 -107.5s-84 -170.167 -84 -295.5c0 -126 27.833 -224.667 83.5 -296s132.834 -107 231.501 -107c98 0 175.333 36 232 108s85 170.333 85 295
c0 123.333 -28.5 221.333 -85.5 294s-134.167 109 -231.5 109z" />
    <glyph glyph-name="e" unicode="e" horiz-adv-x="1170" 
d="M592 945c-86 0 -156.667 -29 -212 -87s-86.333 -134.667 -93 -230h594c-2 95.333 -29.333 172 -82 230s-121.667 87 -207 87zM876 279l171.999 0.000976562c-26 -93.333 -78.833 -166.333 -158.5 -219s-178.167 -79 -295.5 -79
c-149.333 0 -267.666 50.167 -354.999 150.5s-131 235.833 -131 406.5c0 170 44 305.667 132 407s206 152 354 152c145.333 0 259.666 -48.333 342.999 -145s125 -229 125 -397v-66h-775v-8c4.66699 -106.667 34.834 -191.334 90.501 -254.001s129.167 -94 220.5 -94
c139.333 0 232 48.667 278 146z" />
    <glyph glyph-name="f" unicode="f" horiz-adv-x="741" 
d="M234 0v934h-179v144h179v120c0 212 104.333 318 313 318c43.333 0 82 -3.33301 116 -10v-140c-17.333 3.33301 -44.333 5 -81 5c-61.333 0 -106 -14.667 -134 -44s-42 -74 -42 -134v-115h247v-144h-247v-934h-172z" />
    <glyph glyph-name="g" unicode="g" horiz-adv-x="1248" 
d="M598 168c99.333 0 177.5 34.8301 234.5 104.497s85.5 163.834 85.5 282.501c0 118 -28.667 212 -86 282s-135.333 105 -234 105s-175.334 -34.667 -230.001 -104s-82 -163.666 -82 -282.999s27.333 -213.666 82 -282.999s131.334 -104 230.001 -104zM606 -414.003
c-128.667 0 -232.831 26.666 -312.498 79.999s-126.167 125 -139.5 215h182c9.33301 -44.667 37.666 -80 84.999 -106s109 -39 185 -39c96.667 0 172.167 22.5 226.5 67.5s81.5 107.167 81.5 186.5v212h-16c-34 -59.333 -80.333 -105.166 -139 -137.499
s-125 -48.5 -199 -48.5c-138.667 0 -248.667 49.167 -330 147.5s-122 228.833 -122 391.5s41 293.667 123 393s191.667 149 329 149c75.333 0 144 -17.167 206 -51.5s108.667 -80.5 140 -138.5h16v171h164v-1097c0 -120.667 -43.333 -216.667 -130 -288
s-203.334 -107 -350.001 -107z" />
    <glyph glyph-name="h" unicode="h" horiz-adv-x="1216" 
d="M172 0l0.000976562 1506h172v-598h16c27.333 60.667 69.166 107.334 125.499 140.001s125.166 49 206.499 49c114.667 0 205.334 -35.167 272.001 -105.5s100 -168.166 100 -293.499v-698h-172v656c0 190.667 -83 286 -249 286c-94.667 0 -168.167 -27.5 -220.5 -82.5
s-78.5 -128.833 -78.5 -221.5v-638h-172z" />
    <glyph glyph-name="i" unicode="i" horiz-adv-x="504" 
d="M166 0v1078h172v-1078h-172zM252 1297c-33.333 0 -61.666 11.833 -84.999 35.5s-35 51.834 -35 84.501s11.667 60.834 35 84.501s51.666 35.5 84.999 35.5s61.666 -11.833 84.999 -35.5s35 -51.834 35 -84.501s-11.667 -60.834 -35 -84.501s-51.666 -35.5 -84.999 -35.5z
" />
    <glyph glyph-name="j" unicode="j" horiz-adv-x="504" 
d="M338 1078l-0.000976562 -1131c0 -110.667 -26.667 -191.167 -80 -241.5s-136.666 -75.5 -249.999 -75.5h-30v147h26c60 0 102 12.667 126 38s36 68.333 36 129v1134h172zM251.999 1297c-33.333 0 -61.666 11.833 -84.999 35.5s-35 51.834 -35 84.501
s11.667 60.834 35 84.501s51.666 35.5 84.999 35.5s61.666 -11.833 84.999 -35.5s35 -51.834 35 -84.501s-11.667 -60.834 -35 -84.501s-51.666 -35.5 -84.999 -35.5z" />
    <glyph glyph-name="k" unicode="k" horiz-adv-x="1112" 
d="M360 607l468 471h211l-464 -462l495 -616h-219l-404 505l-103 -96v-409h-172v1506h172v-899h16z" />
    <glyph glyph-name="l" unicode="l" horiz-adv-x="516" 
d="M172 0v1506h172v-1506h-172z" />
    <glyph glyph-name="m" unicode="m" horiz-adv-x="1782" 
d="M162 0v1078h164v-170h16c24.667 60 63 106.5 115 139.5s114 49.5 186 49.5c70.667 0 131.5 -17 182.5 -51s89.5 -80 115.5 -138h16c29.333 58 73.333 104 132 138s124.667 51 198 51c110 0 194.667 -30.5 254 -91.5s89 -147.833 89 -260.5v-745h-172v705
c0 158 -75.667 237 -227 237c-73.333 0 -133.333 -24 -180 -72s-70 -107 -70 -177v-693h-172v732c0 64 -20.5 115 -61.5 153s-95.5 57 -163.5 57c-70 0 -129.167 -26.667 -177.5 -80s-72.5 -118 -72.5 -194v-668h-172z" />
    <glyph glyph-name="n" unicode="n" horiz-adv-x="1195" 
d="M162 0v1078h164v-170h16c57.333 126 165.333 189 324 189c120.667 0 213.667 -34.5 279 -103.5s98 -167.5 98 -295.5v-698h-172v656c0 96.667 -20.833 168.5 -62.5 215.5s-105.5 70.5 -191.5 70.5c-86.667 0 -155.5 -27.167 -206.5 -81.5s-76.5 -128.5 -76.5 -222.5v-638
h-172z" />
    <glyph glyph-name="o" unicode="o" horiz-adv-x="1210" 
d="M605 -19c-153.333 0 -274.5 49.833 -363.5 149.5s-133.5 235.834 -133.5 408.501c0 173.333 44.333 309.666 133 408.999s210 149 364 149s275.333 -49.667 364 -149s133 -235.666 133 -408.999c0 -172.667 -44.5 -308.834 -133.5 -408.501
s-210.167 -149.5 -363.5 -149.5zM605 136c102 0 180.667 35.167 236 105.5s83 169.5 83 297.5s-27.667 227.167 -83 297.5s-134 105.5 -236 105.5s-180.667 -35.167 -236 -105.5s-83 -169.5 -83 -297.5s27.667 -227.167 83 -297.5s134 -105.5 236 -105.5z" />
    <glyph glyph-name="p" unicode="p" horiz-adv-x="1248" 
d="M687 1097c137.333 0 247.167 -50.667 329.5 -152s123.5 -236.666 123.5 -405.999c0 -168.667 -41.333 -303.834 -124 -405.501s-192.334 -152.5 -329.001 -152.5c-76.667 0 -144.667 15.833 -204 47.5s-103.666 76.167 -132.999 133.5h-16v-522h-172v1438h164v-180h16
c34.667 62 82.5 110.667 143.5 146s128.167 53 201.5 53zM646.001 136c98.667 0 176 35.667 232 107s84 170 84 296s-27.833 224.667 -83.5 296s-132.834 107 -231.501 107c-97.333 0 -174.666 -36.167 -231.999 -108.5s-86 -170.5 -86 -294.5
c0 -123.333 28.5 -221.333 85.5 -294s134.167 -109 231.5 -109z" />
    <glyph glyph-name="q" unicode="q" horiz-adv-x="1248" 
d="M559 1097c73.333 0 141.167 -18.001 203.5 -54.001s109.5 -84.333 141.5 -145h16v180h166v-1438h-174v522h-16c-70.667 -120.667 -183 -181 -337 -181c-137.333 0 -246.833 50.5 -328.5 151.5s-122.5 236.5 -122.5 406.5c0 168.667 41 303.834 123 405.501
s191.333 152.5 328 152.5zM598.001 135.999c98.667 0 176.499 36.167 233.499 108.5s85.5 170.5 85.5 294.5c0 123.333 -28.667 221.333 -86 294s-134.666 109 -231.999 109c-98 0 -174.667 -35.667 -230 -107s-83 -170 -83 -296c0 -126.667 27.5 -225.5 82.5 -296.5
s131.5 -106.5 229.5 -106.5z" />
    </font>
</defs>
</svg>
